Loading...
Error

Осада Масады / The Siege of Masada [2015 г., документальный, история, SatRip] Dub

Статистика раздачи
Размер:  729 MB   |    Зарегистрирован:  1 год   |    Скачан:  5 раз

Полного источника не было: 11 месяцев

Сидов:  0  |  0 KB/s  ]   Личеров:  0  |  0 KB/s  ]

* - сиды/пиры с внешних источников

   
 
Автор Сообщение

ARI71 Пол:Муж

15-Мар-2016 18:24

Осада Масады / The Siege of Masada


Год выпуска: 2015
Жанр: документальный, история
Страна: США
Студия: JWM Production
Продолжительность: 00:51:00
Режиссер: Джейсон Вильямс
Сюжет фильма:
В 70 году н. э., после взятия римскими легионами Иерусалима, горная крепость Масада оказалась последним оплотом восставших иудеев. Защитников крепости едва насчитывалось тысяча человек, включая женщин и детей, но они удерживали Масаду ещё три года. Около девяти тысяч римских рабов проводили дороги и носили землю для сооружения осадного вала вокруг крепости и площадок для метательных машин и тарана. Когда римлянам удалось поджечь дополнительно выстроенную сикариями внутреннюю оборонительную стену, состоящую из деревянных балок, участь Масады была решена...
Качество видео: SatRip

Формат: AVI
Видео: XviD, 720x400, ~1799 kbps
Аудио: русский, дублированный, AC3 2.0, ~192.00 kbps

Код:

Общее
Полное имя : D:\Осада Масады.avi
Формат : AVI
Формат/Информация : Audio Video Interleave
Размер файла : 729 Мбайт
Продолжительность : 51 м.
Общий поток : 1998 Кбит/сек
Программа кодирования : TMPGEnc Video Mastering Works 5 Version. 5.0.6.38
Библиотека кодирования : TMPGEnc Video Mastering Works 5 Version. 5.0.6.38

Видео
Идентификатор : 0
Формат : MPEG-4 Visual
Профиль формата : Advanced Simple@L5
Параметр BVOP формата : 2
Параметр QPel формата : Нет
Параметр GMC формата : Без точки перехода
Параметр матрицы формата : Default (H.263)
Режим смешивания : Сжатый битовый поток
Идентификатор кодека : XVID
Идентификатор кодека/Подсказка : XviD
Продолжительность : 51 м.
Битрейт : 1799 Кбит/сек
Ширина : 720 пикселей
Высота : 400 пикселей
Соотношение сторон : 16:9
Частота кадров : 25,000 кадров/сек
Цветовое пространство : YUV
Субдискретизация насыщенности : 4:2:0
Битовая глубина : 8 бит
Тип развёртки : Прогрессивная
Метод сжатия : С потерями
Бит/(Пиксели*Кадры) : 0.250
Размер потока : 656 Мбайт (90%)
Библиотека кодирования : XviD 73

Аудио
Идентификатор : 1
Формат : AC-3
Формат/Информация : Audio Coding 3
Расширение режима : CM (complete main)
Параметр Endianness формата : Big
Идентификатор кодека : 2000
Продолжительность : 51 м.
Вид битрейта : Постоянный
Битрейт : 192 Кбит/сек
Каналы : 2 канала
Расположение каналов : Front: L R
Частота : 48,0 КГц
Метод сжатия : С потерями
Размер потока : 70,0 Мбайт (10%)
Выравнивание : Соединение по промежуткам
Продолжительность промежутка : 240 мс. (6,00 видеокадров)
Время предзагрузки промежутка : 224 мс.
picpicpicpicpic
Для увеличения картинки щелкните мышкой по превью

Этот торрент недоступен для скачивания без регистрации, однако доступен по публичной magnet-ссылке (источники с публичных трекеров). Перед использованием ссылки прочтите, пожалуйста Пользовательское соглашение, а также как можно дольше оставайтесь на раздаче! Для того, чтобы скачать сам торрент-файл (который видит больше источников), а также для того, чтобы поблагодарить релизера, вам необходимо зарегистрироваться. Если регистрироваться лень - вы можете также попробовать скачать релиз по нашим партнерским ссылкам ниже.

[underverse.su].t64291.torrent
Трекер: Зарегистрирован   [ 15.03.2016 18:23 ]  

Статус: проверено (by makkol at 15.03.2016 22:21)
Поблагодарили: пока никто не поблагодарил...
Тип торрента: публичный - доступные источники с открытых трекеров: 
Размер: 729 MB (занимает 0,16 DVDR, для записи нужно 1 болванка DVDR/RW)
 
 

Яндекс.Метрика powered by Sphinx


В Н И М А Н И Е
Сайт не распространяет и не хранит электронные версии произведений, а лишь бесплатно и без коммерческой выгоды (не требуя взамен платы,
SMS и т.д.) предоставляет доступ к создаваемому пользователями каталогу ссылок на торрент-файлы, которые содержат только списки хеш-сумм.
Убедительная просьба с жалобами обращаться напрямую к пользователю, разместившему торрент файл.

Вверх