Loading...
Error

В четверг и больше никогда (Анатолий Эфрос) [1977 г., трагическая мелодрама, DVDRip]

Статистика раздачи
Размер:  1,37 GB   |    Зарегистрирован:  8 месяцев   |    Скачан:  5 раз

Полного источника не было: 2 месяца

Сидов:  0  |  0 KB/s  ]   Личеров:  0  |  0 KB/s  ]

* - сиды/пиры с внешних источников

   
 
Автор Сообщение

ARI71 Пол:Муж

15-Мар-2016 17:49

В четверг и больше никогда


Год выпуска: 1977
Жанр: трагическая мелодрама
Страна: СССР
Производство: Мосфильм
Продолжительность: 01:27:59
Режиссер: Анатолий Эфрос

В ролях: Любовь Добржанская, Олег Даль, Иннокентий Смоктуновский, Вера Глаголева, Александр Ожигин, Михаил Жигалов, Валерий Плотников, Виктор Карлов, Гражина Байкштите, Марина Короткова, Ирина Короткова
Сюжет фильма:
Молодой московский врач перед свадьбой решает навестить мать, живущую при заповеднике. Но там, куда летит Сергей, его ждет и любит Варя - его бывшая подруга, ждущая от него ребёнка. Предстоит встреча и мучительный разговор. Сергей предлагает Варе избавиться от ребенка, так как не собирается связывать с ней свою жизнь. Попытки матери объяснить сыну чудовищность его поведения оборачиваются катастрофой - от переживаний мать умирает. А Сергей уезжает в Москву.

  • Российская премьера: Ноябрь 1978

Качество видео: DVDRip

Формат: AVI
Видео: DivX, 720x384, ~2023 kbps
Аудио: русский, оригинал, AC3 2.0, ~192.00 kbps

Код:

Общее
Полное имя : D:\V_chetverg_DVDRip.avi
Формат : AVI
Формат/Информация : Audio Video Interleave
Размер файла : 1,37 Гбайт
Продолжительность : 1 ч. 27 м.
Общий поток : 2225 Кбит/сек
Программа кодирования : VirtualDubModRus 1.5.10.2 (build 2542/release)
Библиотека кодирования : VirtualDubMod build 2542/release

Видео
Идентификатор : 0
Формат : MPEG-4 Visual
Параметр BVOP формата : Да
Параметр QPel формата : Нет
Параметр GMC формата : Без точки перехода
Параметр матрицы формата : Default (H.263)
Идентификатор кодека : DX50
Идентификатор кодека/Подсказка : DivX 5
Продолжительность : 1 ч. 27 м.
Битрейт : 2023 Кбит/сек
Ширина : 720 пикселей
Высота : 384 пикселя
Соотношение сторон : 1,85:1
Частота кадров : 25,000 кадров/сек
Цветовое пространство : YUV
Субдискретизация насыщенности : 4:2:0
Битовая глубина : 8 бит
Тип развёртки : Прогрессивная
Метод сжатия : С потерями
Бит/(Пиксели*Кадры) : 0.293
Размер потока : 1,24 Гбайт (91%)
Библиотека кодирования : DivX 6.8.3-6.8.4 (UTC 2008-06-07)

Аудио
Идентификатор : 1
Формат : AC-3
Формат/Информация : Audio Coding 3
Расширение режима : CM (complete main)
Параметр Endianness формата : Big
Идентификатор кодека : 2000
Продолжительность : 1 ч. 27 м.
Вид битрейта : Постоянный
Битрейт : 192 Кбит/сек
Каналы : 2 канала
Расположение каналов : Front: L R
Частота : 48,0 КГц
Метод сжатия : С потерями
Размер потока : 121 Мбайт (9%)
Выравнивание : Соединение по промежуткам
Продолжительность промежутка : 40 мс. (1,00 видеокадр)
Время предзагрузки промежутка : 512 мс.
picpicpicpicpic
Для увеличения картинки щелкните мышкой по превью

Этот торрент недоступен для скачивания без регистрации, однако доступен по публичной magnet-ссылке (источники с публичных трекеров). Перед использованием ссылки прочтите, пожалуйста Пользовательское соглашение, а также как можно дольше оставайтесь на раздаче! Для того, чтобы скачать сам торрент-файл (который видит больше источников), а также для того, чтобы поблагодарить релизера, вам необходимо зарегистрироваться. Если регистрироваться лень - вы можете также попробовать скачать релиз по нашим партнерским ссылкам ниже.

[underverse.su].t64285.torrent
Трекер: Зарегистрирован   [ 15.03.2016 17:49 ]  

Статус: проверено (by 90ytr90 at 15.03.2016 18:50)
Поблагодарили: пока никто не поблагодарил...
Тип торрента: публичный - доступные источники с открытых трекеров: 
Размер: 1,37 GB (занимает 0,31 DVDR, для записи нужно 1 болванка DVDR/RW)
 
 

Яндекс.Метрика powered by Sphinx


В Н И М А Н И Е
Сайт не распространяет и не хранит электронные версии произведений, а лишь бесплатно и без коммерческой выгоды (не требуя взамен платы,
SMS и т.д.) предоставляет доступ к создаваемому пользователями каталогу ссылок на торрент-файлы, которые содержат только списки хеш-сумм.
Убедительная просьба с жалобами обращаться напрямую к пользователю, разместившему торрент файл.

Вверх