Loading...
Error

Аркадий Северный. Он был почти что знаменит [1997 г., документальный, биография, шансон, TVRip]

Статистика раздачи
Размер:  241 MB   |    Зарегистрирован:  8 месяцев   |    Скачан:  2 раза

Полного источника не было: 8 месяцев

Сидов:  0  |  0 KB/s  ]   Личеров:  0  |  0 KB/s  ]

* - сиды/пиры с внешних источников

   
 
Автор Сообщение

ARI71 Пол:Муж

14-Мар-2016 20:31

Аркадий Северный. Он был почти что знаменит


Год выпуска: 1997
Жанр: документальный, биография, шансон
Страна: Россия
Студия: АНО "Интерньюс"
Продолжительность: 00:25:40
Режиссер: Дмитрий Завельгельский
Сюжет фильма:
Фильм рассказывает о судьбе знаменитого ленинградского подпольного певца-шансонье Аркадия Северного.
Уникален тем, что содержит единственный сохранившийся видеоряд с Аркадием Северным.

Аркадий Дмитриевич Звездин (Северный) - (1939-1980) - исполнитель песен современного городского фольклора, авторских неподцензурных песен, романсов и стилизаций. Обладал очень оригинальным тембром голоса и экспрессивной артистической подачей песни. Мог ярко обыграть песню в любой стилистике, от романсовой до джазовой.

Качество видео: TVRip

Формат: AVI
Видео: DivX, 568x444, 1181 kbps
Аудио: русский, (оригинал), MP3 2.0, ~128.00 kbps

Код:

Общее
Полное имя : D:\arkadij-severnyj-on-byl-pochti-chto-znamenit.avi
Формат : AVI
Формат/Информация : Audio Video Interleave
Размер файла : 241 Мбайт
Продолжительность : 25 м.
Общий поток : 1315 Кбит/сек

Видео
Идентификатор : 0
Формат : MPEG-4 Visual
Параметр BVOP формата : 1
Параметр QPel формата : Нет
Параметр GMC формата : Без точки перехода
Параметр матрицы формата : Default (H.263)
Режим смешивания : Сжатый битовый поток
Идентификатор кодека : DX50
Идентификатор кодека/Подсказка : DivX 5
Продолжительность : 25 м.
Битрейт : 1181 Кбит/сек
Ширина : 568 пикселей
Высота : 444 пикселя
Соотношение сторон : 1,279
Частота кадров : 25,000 кадров/сек
Цветовое пространство : YUV
Субдискретизация насыщенности : 4:2:0
Битовая глубина : 8 бит
Тип развёртки : Прогрессивная
Метод сжатия : С потерями
Бит/(Пиксели*Кадры) : 0.187
Размер потока : 217 Мбайт (90%)
Библиотека кодирования : DivX 5.1.1 (Maupiti) (UTC 2003-11-19)

Аудио
Идентификатор : 1
Формат : MPEG Audio
Версия формата : Version 1
Профиль формата : Layer 3
Режим : Joint stereo
Идентификатор кодека : 55
Идентификатор кодека/Подсказка : MP3
Продолжительность : 25 м.
Продолжительность оригинала : 25 м.
Вид битрейта : Постоянный
Битрейт : 128 Кбит/сек
Каналы : 2 канала
Частота : 44,1 КГц
Метод сжатия : С потерями
Размер потока : 23,5 Мбайт (10%)
Выравнивание : Разделение по промежуткам
Продолжительность промежутка : 200 мс. (5,00 видеокадров)
Библиотека кодирования : LAME3.95
picpicpicpicpic
Для увеличения картинки щелкните мышкой по превью

Этот торрент недоступен для скачивания без регистрации, однако доступен по публичной magnet-ссылке (источники с публичных трекеров). Перед использованием ссылки прочтите, пожалуйста Пользовательское соглашение, а также как можно дольше оставайтесь на раздаче! Для того, чтобы скачать сам торрент-файл (который видит больше источников), а также для того, чтобы поблагодарить релизера, вам необходимо зарегистрироваться. Если регистрироваться лень - вы можете также попробовать скачать релиз по нашим партнерским ссылкам ниже.

[underverse.su].t64251.torrent
Трекер: Зарегистрирован   [ 14.03.2016 20:31 ]  

Статус: проверено (by makkol at 14.03.2016 22:38)
Поблагодарили: пока никто не поблагодарил...
Тип торрента: публичный - доступные источники с открытых трекеров: 
Размер: 241 MB (занимает 0,05 DVDR, для записи нужно 1 болванка DVDR/RW)
 
 

Яндекс.Метрика powered by Sphinx


В Н И М А Н И Е
Сайт не распространяет и не хранит электронные версии произведений, а лишь бесплатно и без коммерческой выгоды (не требуя взамен платы,
SMS и т.д.) предоставляет доступ к создаваемому пользователями каталогу ссылок на торрент-файлы, которые содержат только списки хеш-сумм.
Убедительная просьба с жалобами обращаться напрямую к пользователю, разместившему торрент файл.

Вверх