Loading...
Error

Необычный леопард / The Unlikely Leopard [2012 г., документальный, флора, фауна, HDTVRip] Dub

Статистика раздачи
Размер:  707 MB   |    Зарегистрирован:  8 месяцев   |    Скачан:  2 раза

Полного источника не было: 1 час

Сидов:  0  |  0 KB/s  ]   Личеров:  0  |  0 KB/s  ]

* - сиды/пиры с внешних источников

   
 
Автор Сообщение

ARI71 Пол:Муж

14-Мар-2016 16:25

Необычный леопард / The Unlikely Leopard


Год выпуска: 2012
Жанр: документальный, флора, фауна
Страна: США
Студия: Wild Life Films Botswana
Продолжительность: 00:44:59
Режиссер: National Geographic
Сюжет фильма:
Этот фильм, снятый в формате HD, рассказывает историю о взрослении молодого самца леопарда, который завоевывает сердца зрителей своими неуклюжими, подростковыми выходками, его неумением делать то, что должны уметь большинство леопардов, как например, лазание по деревьям и удержание на нем своей добычи. Умиление вызывает и его сильная связь с матерью. Мы начинаем следовать за этим леопардом, когда ему еще несколько недель от роду, но когда он уже должен отойти от своей матери и войти в широкий мир, живущий по своим законам. Этот леопард имеет ярко выраженную индивидуальность. Съемки проходят в Ботсване, в Африке.
Качество видео: HDTVRip

Формат: AVI
Видео: XviD, 704x400, ~2000 kbps
Аудио: русский, дублированный, AC3 2.0, ~192.00 kbps

Код:

Общее
Полное имя : D:\NG.The.Unlikely.Leopard.2012.XviD.HDTVRip.DeathN2.avi
Формат : AVI
Формат/Информация : Audio Video Interleave
Профиль формата : OpenDML
Настройки формата : rec
Размер файла : 707 Мбайт
Продолжительность : 44 м.
Общий поток : 2198 Кбит/сек
Название фильма : Created by DeathN2 for Кинозал.ТВ
Программа кодирования : AVI-Mux GUI 1.17.8, Aug 30 2008 12:36:58

Видео
Идентификатор : 0
Формат : MPEG-4 Visual
Профиль формата : Advanced Simple@L5
Параметр BVOP формата : 1
Параметр QPel формата : Нет
Параметр GMC формата : Без точки перехода
Параметр матрицы формата : Default (MPEG)
Идентификатор кодека : XVID
Идентификатор кодека/Подсказка : XviD
Продолжительность : 44 м.
Битрейт : 2000 Кбит/сек
Ширина : 704 пикселя
Высота : 400 пикселей
Соотношение сторон : 16:9
Частота кадров : 25,000 кадров/сек
Цветовое пространство : YUV
Субдискретизация насыщенности : 4:2:0
Битовая глубина : 8 бит
Тип развёртки : Прогрессивная
Метод сжатия : С потерями
Бит/(Пиксели*Кадры) : 0.284
Размер потока : 644 Мбайт (91%)
Библиотека кодирования : XviD 1.2.1 (UTC 2008-12-04)

Аудио
Идентификатор : 1
Формат : AC-3
Формат/Информация : Audio Coding 3
Расширение режима : CM (complete main)
Параметр Endianness формата : Big
Идентификатор кодека : 2000
Продолжительность : 44 м.
Вид битрейта : Постоянный
Битрейт : 192 Кбит/сек
Каналы : 2 канала
Расположение каналов : Front: L R
Частота : 48,0 КГц
Метод сжатия : С потерями
Размер потока : 61,8 Мбайт (9%)
Выравнивание : Соединение по промежуткам
Продолжительность промежутка : 64 мс. (1,60 видеокадра)
Время предзагрузки промежутка : 192 мс.
picpicpicpicpic
Для увеличения картинки щелкните мышкой по превью

Этот торрент недоступен для скачивания без регистрации, однако доступен по публичной magnet-ссылке (источники с публичных трекеров). Перед использованием ссылки прочтите, пожалуйста Пользовательское соглашение, а также как можно дольше оставайтесь на раздаче! Для того, чтобы скачать сам торрент-файл (который видит больше источников), а также для того, чтобы поблагодарить релизера, вам необходимо зарегистрироваться. Если регистрироваться лень - вы можете также попробовать скачать релиз по нашим партнерским ссылкам ниже.

[underverse.su].t64235.torrent
Трекер: Зарегистрирован   [ 14.03.2016 16:25 ]  

Статус: проверено (by 90ytr90 at 14.03.2016 18:00)
Поблагодарили: 1 человек
Тип торрента: публичный - доступные источники с открытых трекеров: 
Размер: 707 MB (занимает 0,16 DVDR, для записи нужно 1 болванка DVDR/RW)
 
 

Яндекс.Метрика powered by Sphinx


В Н И М А Н И Е
Сайт не распространяет и не хранит электронные версии произведений, а лишь бесплатно и без коммерческой выгоды (не требуя взамен платы,
SMS и т.д.) предоставляет доступ к создаваемому пользователями каталогу ссылок на торрент-файлы, которые содержат только списки хеш-сумм.
Убедительная просьба с жалобами обращаться напрямую к пользователю, разместившему торрент файл.

Вверх