Loading...
Error

В поисках огня / Digging for Fire (Джо Сванберг) [2015 г., драма, WEB-DLRip] MVO

Статистика раздачи
Размер:  1,37 GB   |    Зарегистрирован:  8 месяцев   |    Скачан:  22 раза

Полного источника не было: 9 часов

Сидов:  0  |  0 KB/s  ]   Личеров:  0  |  0 KB/s  ]

* - сиды/пиры с внешних источников

   
 
Автор Сообщение

makkol Пол:Муж

13-Мар-2016 23:32

В поисках огня / Digging for Fire


Год выпуска: 2015
Жанр: драма
Производство: США [Garrett Motion Pictures]
Режиссер: Джо Сванберг
В ролях: Джейн Адамс (II), Джефф Бэйна, Стив Берг, Майк Бирбиглия, Орландо Блум, Том Бауэр, Линдсэй Бердж, Розмари ДеУитт, Сэм Эллиотт
Сюжет фильма:
Несмотря на все трудности, с которыми сталкивается большинство молодых семей с маленькими детьми, Тим и Ли счастливы в браке. Пока Ли занимается домашним хозяйством и воспитанием ребёнка, Тим ищет возможности улизнуть от бытовых обязанностей, ведь жена уже неделю просит его разобраться с накопившимися налогами. У него появляется прекрасная возможность деликатно совершить задуманное, когда во дворе собственного дома мечты в Голливуд Хиллз Тим случайно откапывает ржавый пистолет и старые кости. Теперь, вместо нудного подсчёта налогов, Тим собирает друзей и вместе с ними и ящиком пива отправляется на поиски ответов на свои вопросы о подозрительных находках. У него есть свободное время, ведь Ли вместе с ребёнком на выходные уехала. Её тоже ждут интересные приключения, но целью жены являются ответы на более глобальные вопросы: брак и воспитание детей.

  • Мировая премьера: 26 января 2015


Качество видео: WEB-DLRip

Продолжительность: 01:23:30
Формат: AVI
Видео: XviD, 720x304 (2.35:1), 23.976 fps, 1957 kbps
Аудио: русский, профессиональный многоголосый закадровый (iTunes), AC3 5.1, 48 kHz, 384 kbps

Код:

Формат                                   : AVI
Формат/Информация                        : Audio Video Interleave
Размер файла                             : 1,37 Гбайт
Продолжительность                        : 1 ч. 23 м.
Общий поток                              : 2350 Кбит/сек
Программа кодирования                    : VirtualDubMod 1.5.10.2 (build 2540/release)
Библиотека кодирования                   : VirtualDubMod build 2540/release

Видео
Идентификатор                            : 0
Формат                                   : MPEG-4 Visual
Профиль формата                          : Advanced Simple@L5
Параметр BVOP формата                    : 2
Параметр QPel формата                    : Нет
Параметр GMC формата                     : Без точки перехода
Параметр матрицы формата                 : Default (MPEG)
Идентификатор кодека                     : XVID
Идентификатор кодека/Подсказка           : XviD
Продолжительность                        : 1 ч. 23 м.
Битрейт                                  : 1957 Кбит/сек
Ширина                                   : 720 пикселей
Высота                                   : 304 пикселя
Соотношение сторон                       : 2,35:1
Частота кадров                           : 23,976 кадра/сек
Цветовое пространство                    : YUV
Субдискретизация насыщенности            : 4:2:0
Битовая глубина                          : 8 бит
Тип развёртки                            : Прогрессивная
Метод сжатия                             : С потерями
Бит/(Пиксели*Кадры)                      : 0.373
Размер потока                            : 1,14 Гбайт (83%)
Библиотека кодирования                   : XviD 1.2.1 (UTC 2008-12-04)

Аудио
Идентификатор                            : 1
Формат                                   : AC-3
Формат/Информация                        : Audio Coding 3
Расширение режима                        : CM (complete main)
Параметр Endianness формата              : Big
Идентификатор кодека                     : 2000
Продолжительность                        : 1 ч. 23 м.
Вид битрейта                             : Постоянный
Битрейт                                  : 384 Кбит/сек
Каналы                                   : 6 каналов
Расположение каналов                     : Front: L C R, Side: L R, LFE
Частота                                  : 48,0 КГц
Метод сжатия                             : С потерями
Размер потока                            : 229 Мбайт (16%)
Выравнивание                             : Разделение по промежуткам
Продолжительность промежутка             : 42  мс. (1,00 видеокадр)
Время предзагрузки промежутка            : 500  мс.
picpicpicpicpic
Для увеличения картинки щелкните мышкой по превью

Этот торрент недоступен для скачивания без регистрации, однако доступен по публичной magnet-ссылке (источники с публичных трекеров). Перед использованием ссылки прочтите, пожалуйста Пользовательское соглашение, а также как можно дольше оставайтесь на раздаче! Для того, чтобы скачать сам торрент-файл (который видит больше источников), а также для того, чтобы поблагодарить релизера, вам необходимо зарегистрироваться. Если регистрироваться лень - вы можете также попробовать скачать релиз по нашим партнерским ссылкам ниже.

[underverse.su].t64221.torrent
Трекер: Зарегистрирован   [ 13.03.2016 23:32 ]  

Статус: T временная (by makkol at 15.03.2016 22:51)
Поблагодарили: пока никто не поблагодарил...
Тип торрента: публичный - доступные источники с открытых трекеров: 
Размер: 1,37 GB (занимает 0,31 DVDR, для записи нужно 1 болванка DVDR/RW)
 
 
Похожие темы
Форум Тема Автор Торрент Отв. Посл. сооб.
Зарубежное кино [DVDRip, Low-Res HDRip, и т.д.] В поисках блаженства / Finding Bliss (Джули Дэвис) [2009 г., мелодрама, комедия, DVDRip] VO [den904] Паукан
0 | 1

0 | 1890

8

21.11.2013 14:09

Зарубежное кино [DVDRip, Low-Res HDRip, и т.д.] В поисках радости / Finding Joy (Карло Де Роза) [2013 г., комедия, драма, WEB-DLRip] MVO (НТВ+) 90ytr90
0 | 0

0 | 1864

8

24.11.2013 12:00

Зарубежное кино [DVDRip, Low-Res HDRip, и т.д.] В поисках Фанни / Finding Fanny (Хоми Ададжаниа / Homi Adajania) [2014 г., драма, мелодрама, комедия, DVDRip] MVO (ICG) + Original (Hin) + Sub (Rus) 90ytr90
1 | 1

0 | 461

1

25.01.2015 13:27

Зарубежное кино [DVDRip, Low-Res HDRip, и т.д.] В поисках галактики / Galaxy Quest (Дин Паризо / Dean Parisot) [1999 г., фантастика, комедия, приключения, BDRip] MVO + Original (Eng) + AVO (Ю.Живов) + MVO (ОРТ) 90ytr90
0 | 0

0 | 247

4

31.01.2015 21:22

Зарубежное кино [DVDRip, Low-Res HDRip, и т.д.] В поисках галактики / Galaxy Quest (Дин Паризо / Dean Parisot) [1999 г., фантастика, комедия, приключения, BDRip] MVO + Original (Eng) + Sub (Rus, Eng) 90ytr90
3 | 0

0 | 288

9

31.01.2015 21:23

Зарубежное кино [DVDRip, Low-Res HDRip, и т.д.] В поисках Рождества / Finding Christmas (Харви Кросслэнд) [2013 г., мелодрама, SatRip] MVO makkol
2 | 0

0 | 323

1

17.06.2015 22:09

Зарубежное кино [DVDRip, Low-Res HDRip, и т.д.] В поисках Бобби Фишера / Выбор игры / Searching for Bobby Fischer (Стивен Зеллиан) [1993 г., драма, биография, WEB-DLRip] DVO + MVO + VO + Original + Subs makkol
14 | 3

0 | 482

4

08.03.2016 15:25

Зарубежное кино [DVDRip, Low-Res HDRip, и т.д.] В поисках чудес / Looking for Miracles (Кевин Салливан ) [1989 г., драма, семейный, DVDRip] VO + Original makkol
2 | 0

0 | 619

3

12.03.2016 11:49

Зарубежные мультфильмы В поисках Жу / Quest for Zhu (Боб Дусетте ) [2011 г., мультфильм,приключения,семейный, HDRip] МУХА~
0 | 0

1 | 1338

20

30.10.2011 12:32

Зарубежные мультфильмы В поисках Дори / Finding Dory (Эндрю Стэнтон / Andrew Stanton, Энгус МакЛэйн / Angus MacLane) [2016 г., мультфильм, комедия, приключения, семейный, BDRip-AVC] Dub + Original (Eng) + Sub (Rus, Eng) 90ytr90
55 | 6

0 | 167

3

19.11.2016 07:23


Яндекс.Метрика powered by Sphinx


В Н И М А Н И Е
Сайт не распространяет и не хранит электронные версии произведений, а лишь бесплатно и без коммерческой выгоды (не требуя взамен платы,
SMS и т.д.) предоставляет доступ к создаваемому пользователями каталогу ссылок на торрент-файлы, которые содержат только списки хеш-сумм.
Убедительная просьба с жалобами обращаться напрямую к пользователю, разместившему торрент файл.

Вверх