Loading...
Error

50 лет без Ахматовой [2016 г., документальный, биография, поэзия, SatRip]

Статистика раздачи
Размер:  408 MB   |    Зарегистрирован:  8 месяцев   |    Скачан:  5 раз

Полного источника не было: 1 день 10 часов

Сидов:  0  |  0 KB/s  ]   Личеров:  0  |  0 KB/s  ]

* - сиды/пиры с внешних источников

   
 
Автор Сообщение

ARI71 Пол:Муж

13-Мар-2016 11:14

50 лет без Ахматовой


Год выпуска: 2016
Жанр: документальный, биография, поэзия
Страна: Украина
Студия: Телеканал Iнтер
Продолжительность: 00:33:10
Перевод: русский, (оригинал)
Режиссер: Алексей Лябах
Сюжет фильма:
5 марта 2016 года исполнилось 50 лет со дня смерти Анны Ахматовой.

В документальном фильме подробно рассказывается о киевском периоде жизни великой поэтессы. Какой она была, когда посещала наш город, и каким был Киев времен Ахматовой? Какие события происходили в это время в ее жизни и в жизни города? От первых детских воспоминаний, через описание гимназического периода и венчания с Гумилевым, до последнего приезда Ахматовой в Киев, в 1914 году, когда она посещает Кирилловскую церковь. Здесь, по ее воспоминаниям, она в последний раз чувствует гармонию и спокойствие, которые, в силу последующих трагических событий в ее судьбе и в судьбе целого народа, больше к ней не вернутся.
Она могла бы уехать из страны, но не сделала этого - ни в молодости, ни на закате своей жизни. Она пережила все то, что переживала ее страна и ее народ. Такой была ее судьба. Если бы она уехала, у нас не было бы Ахматовой.

А́нна Андре́евна Ахма́това (в девичестве — Го́ренко, по первому мужу Горенко-Гумилёва, после развода взяла фамилию Ахматова, по второму мужу Ахматова-Шилейко, после развода Ахматова) 11 (23) июня 1889, Одесса, — 5 марта 1966, Домодедово, Московская область) — русская поэтесса, переводчица и литературовед, одна из наиболее значимых фигур русской литературы XX века. Номинант на Нобелевскую премию по литературе (1965)

Качество видео: SatRip

Формат: AVI
Видео: 704x400 (1.76:1), 25 fps, XviD build 64 ~1516 kbps avg, 0.22 bit/pixel
Аудио: 48 kHz, MPEG Layer 3, 2 ch, ~192.00 kbps avg

Код:

Общее
Полное имя : D:\50 лет без Ахматовой.avi
Формат : AVI
Формат/Информация : Audio Video Interleave
Размер файла : 408 Мбайт
Продолжительность : 33 м.
Общий поток : 1718 Кбит/сек

Видео
Идентификатор : 0
Формат : MPEG-4 Visual
Профиль формата : Advanced Simple@L5
Параметр BVOP формата : 2
Параметр QPel формата : Нет
Параметр GMC формата : Без точки перехода
Параметр матрицы формата : Default (H.263)
Идентификатор кодека : XVID
Идентификатор кодека/Подсказка : XviD
Продолжительность : 33 м.
Битрейт : 1516 Кбит/сек
Ширина : 704 пикселя
Высота : 400 пикселей
Соотношение сторон : 16:9
Частота кадров : 25,000 кадров/сек
Цветовое пространство : YUV
Субдискретизация насыщенности : 4:2:0
Битовая глубина : 8 бит
Тип развёртки : Прогрессивная
Метод сжатия : С потерями
Бит/(Пиксели*Кадры) : 0.215
Размер потока : 360 Мбайт (88%)
Библиотека кодирования : XviD 64

Аудио
Идентификатор : 1
Формат : MPEG Audio
Версия формата : Version 1
Профиль формата : Layer 3
Режим : Joint stereo
Идентификатор кодека : 55
Идентификатор кодека/Подсказка : MP3
Продолжительность : 33 м.
Вид битрейта : Постоянный
Битрейт : 192 Кбит/сек
Каналы : 2 канала
Частота : 48,0 КГц
Метод сжатия : С потерями
Размер потока : 45,6 Мбайт (11%)
Выравнивание : Разделение по промежуткам
Продолжительность промежутка : 40 мс. (1,00 видеокадр)
Время предзагрузки промежутка : 500 мс.
Библиотека кодирования : LAME3.98.2
picpicpicpic
Для увеличения картинки щелкните мышкой по превью

Этот торрент недоступен для скачивания без регистрации, однако доступен по публичной magnet-ссылке (источники с публичных трекеров). Перед использованием ссылки прочтите, пожалуйста Пользовательское соглашение, а также как можно дольше оставайтесь на раздаче! Для того, чтобы скачать сам торрент-файл (который видит больше источников), а также для того, чтобы поблагодарить релизера, вам необходимо зарегистрироваться. Если регистрироваться лень - вы можете также попробовать скачать релиз по нашим партнерским ссылкам ниже.

[underverse.su].t64206.torrent
Трекер: Зарегистрирован   [ 13.03.2016 11:14 ]  

Статус: проверено (by makkol at 13.03.2016 14:00)
Поблагодарили: пока никто не поблагодарил...
Тип торрента: публичный - доступные источники с открытых трекеров: 
Размер: 408 MB (занимает 0,09 DVDR, для записи нужно 1 болванка DVDR/RW)
 
 

Яндекс.Метрика powered by Sphinx


В Н И М А Н И Е
Сайт не распространяет и не хранит электронные версии произведений, а лишь бесплатно и без коммерческой выгоды (не требуя взамен платы,
SMS и т.д.) предоставляет доступ к создаваемому пользователями каталогу ссылок на торрент-файлы, которые содержат только списки хеш-сумм.
Убедительная просьба с жалобами обращаться напрямую к пользователю, разместившему торрент файл.

Вверх