Loading...
Error

Нефертити. Загадка мумии царицы / Nefertiti. Mummy Queen Mystery [2011 г., документальный, история, египтология, IPTVRip] Dub

Статистика раздачи
Размер:  701 MB   |    Зарегистрирован:  8 месяцев   |    Скачан:  22 раза
Сидов:  1  |  0 KB/s  ]   Личеров:  0  |  0 KB/s  ]

* - сиды/пиры с внешних источников

   
 
Автор Сообщение

ARI71 Пол:Муж

13-Мар-2016 09:25

Нефертити. Загадка мумии царицы / Nefertiti. Mummy Queen Mystery


Год выпуска: 2011
Жанр: документальный, история, египтология
Страна: Италия
Студия: Digital Source Pictures, Brando Quilici Productions
Продолжительность: 00:43:28
Перевод: русский, (дублированный)
Режиссер: Брандо Куиличи
В ролях: Захи Хавасс
Сюжет фильма:
Самая знаменитая царица древнего мира. 3000 лет она олицетворяет собой красоту, могущество и тайну. Возможно она правила величайшей империей на Земле. Возможно она была матерью царя Тутанхамона, но единственное, что точно известно - пребывая на вершине славы она исчезла без следа. Где же искать царицу Нефертити? Мы узнаем о ней все больше и больше, но она все же остается загадкой, и поиски её мумии продолжаются.


Качество видео: IPTVRip

Формат: AVI
Видео: 720x416 (1.73:1), 25 fps, DivX Codec 5.x or 6.x ~2053 kbps avg, 0.27 bit/pixel
Аудио: 48 kHz, AC3 Dolby Digital, 2/0 (L,R) ch, ~192.00 kbps avg

Код:

Общее
Полное имя : D:\Nefertiti. Zagadka mumii caricy.avi
Формат : AVI
Формат/Информация : Audio Video Interleave
Размер файла : 701 Мбайт
Продолжительность : 43 м.
Общий поток : 2255 Кбит/сек
Программа кодирования : VirtualDubMod 1.5.10.2 (build 2540/release)
Библиотека кодирования : VirtualDubMod build 2540/release

Видео
Идентификатор : 0
Формат : MPEG-4 Visual
Профиль формата : Advanced Simple@L5
Параметр BVOP формата : 2
Параметр QPel формата : Нет
Параметр GMC формата : Без точки перехода
Параметр матрицы формата : Default (MPEG)
Идентификатор кодека : DX50
Идентификатор кодека/Подсказка : DivX 5
Продолжительность : 43 м.
Битрейт : 2053 Кбит/сек
Ширина : 720 пикселей
Высота : 416 пикселей
Соотношение сторон : 1,731
Частота кадров : 25,000 кадров/сек
Цветовое пространство : YUV
Субдискретизация насыщенности : 4:2:0
Битовая глубина : 8 бит
Тип развёртки : Прогрессивная
Метод сжатия : С потерями
Бит/(Пиксели*Кадры) : 0.274
Размер потока : 638 Мбайт (91%)
Библиотека кодирования : XviD 64

Аудио
Идентификатор : 1
Формат : AC-3
Формат/Информация : Audio Coding 3
Расширение режима : CM (complete main)
Параметр Endianness формата : Big
Идентификатор кодека : 2000
Продолжительность : 43 м.
Вид битрейта : Постоянный
Битрейт : 192 Кбит/сек
Каналы : 2 канала
Расположение каналов : Front: L R
Частота : 48,0 КГц
Метод сжатия : С потерями
Размер потока : 59,7 Мбайт (9%)
Выравнивание : Разделение по промежуткам
Продолжительность промежутка : 40 мс. (1,00 видеокадр)
Время предзагрузки промежутка : 500 мс.
picpicpicpicpic
Для увеличения картинки щелкните мышкой по превью

Этот торрент недоступен для скачивания без регистрации, однако доступен по публичной magnet-ссылке (источники с публичных трекеров). Перед использованием ссылки прочтите, пожалуйста Пользовательское соглашение, а также как можно дольше оставайтесь на раздаче! Для того, чтобы скачать сам торрент-файл (который видит больше источников), а также для того, чтобы поблагодарить релизера, вам необходимо зарегистрироваться. Если регистрироваться лень - вы можете также попробовать скачать релиз по нашим партнерским ссылкам ниже.

[underverse.su].t64203.torrent
Трекер: Зарегистрирован   [ 13.03.2016 09:25 ]  

Статус: проверено (by makkol at 13.03.2016 13:59)
Поблагодарили: 2 человека
Тип торрента: публичный - доступные источники с открытых трекеров: 
Размер: 701 MB (занимает 0,16 DVDR, для записи нужно 1 болванка DVDR/RW)
 
 

ARI71 Пол:Муж

14-Мар-2016 18:20

Просьба к скачавшим поддержать эту раздачу! Я с раздачи схожу. Спасибо всем!

Яндекс.Метрика powered by Sphinx


В Н И М А Н И Е
Сайт не распространяет и не хранит электронные версии произведений, а лишь бесплатно и без коммерческой выгоды (не требуя взамен платы,
SMS и т.д.) предоставляет доступ к создаваемому пользователями каталогу ссылок на торрент-файлы, которые содержат только списки хеш-сумм.
Убедительная просьба с жалобами обращаться напрямую к пользователю, разместившему торрент файл.

Вверх