Loading...
Error

Владимир Гостюхин. Она его за муки полюбила [2016 г., документальный, биография, кинематограф, SatRip]

Статистика раздачи
Размер:  720 MB   |    Зарегистрирован:  8 месяцев   |    Скачан:  3 раза

Полного источника не было: 4 месяца 25 дней

Сидов:  0  |  0 KB/s  ]   Личеров:  0  |  0 KB/s  ]

* - сиды/пиры с внешних источников

   
 
Автор Сообщение

ARI71 Пол:Муж

12-Мар-2016 12:37

Владимир Гостюхин. Она его за муки полюбила


Год выпуска: 2016
Жанр: документальный, биография, кинематограф
Страна: Россия
Студия: Медиа Конструктор
Продолжительность: 00:50:15
Перевод: русский, (оригинал)
Режиссер: Максим Жуковский
В ролях: Владимир Гостюхин, Сергей Шакуров, Александр Михайлов
Сюжет фильма:
На даче в 180 километрах от Минска Гостюхин часто бывает один: совершает долгие прогулки по лесу и озеру, катается на лыжах, занимается боксом и по десять-двенадцать часов парится в бане, "выпаривая из себя весь внешний мир, все эти улыбки и разговоры, усталость и чужую недоброжелательность". В этом доме - все самые дорогие сердцу Гостюхина вещи: пластинки, которые он собирает всю жизнь, книги, фотографии любимой мамы и дорогих сердцу друзей, которых уже нет… В жизни Владимира Гостюхина было много потерь. Когда он учился на первом курсе театрального института, погибла мама, которая сделала из него – свердловского хулигана "Гостюхи" актера – привела в театральную студию. После автомобильной аварии умер близкий друг Владимир Мулявин. С ним Гостюхин был духовно близок, и только с ним мог обсудить все – и работу и перипетии личной жизни. Еще один родной по духу человек – оператор Владимир Калашников был сбит машиной. Автомобильная авария унесла и жизнь его "второй матери", режиссера Ларисы Шепитько.

Влади́мир Васи́льевич Гостю́хин (10 марта 1946, Свердловск) — советский и белорусский актёр театра и кино, кинорежиссёр. Заслуженный артист Белорусской ССР (1982). Народный артист Беларуси (1996). Лауреат Государственной премии СССР (1985) и Государственной премии РФ (1993).

Качество видео: SatRip

Формат: AVI
Видео: 704x448 (1.57:1), 25 fps, XviD build 50 ~1800 kbps avg, 0.23 bit/pixel
Аудио: 48 kHz, AC3 Dolby Digital, 2/0 (L,R) ch, ~192.00 kbps avg

Код:

Общее
Полное имя : D:\Vladimir.Gostyuhin-Ona.Ego.Za.Muki.Polyubila.SATRip.avi
Формат : AVI
Формат/Информация : Audio Video Interleave
Размер файла : 720 Мбайт
Продолжительность : 50 м.
Общий поток : 2002 Кбит/сек
Программа кодирования : VirtualDubMod 1.5.10.3 | www.virtualdub-fr.org || (build 2550/release)
Библиотека кодирования : VirtualDubMod build 2550/release

Видео
Идентификатор : 0
Формат : MPEG-4 Visual
Профиль формата : Advanced Simple@L5
Параметр BVOP формата : 2
Параметр QPel формата : Нет
Параметр GMC формата : Без точки перехода
Параметр матрицы формата : Default (H.263)
Идентификатор кодека : XVID
Идентификатор кодека/Подсказка : XviD
Продолжительность : 50 м.
Битрейт : 1800 Кбит/сек
Ширина : 704 пикселя
Высота : 448 пикселей
Соотношение сторон : 16:10
Частота кадров : 25,000 кадров/сек
Цветовое пространство : YUV
Субдискретизация насыщенности : 4:2:0
Битовая глубина : 8 бит
Тип развёртки : Прогрессивная
Метод сжатия : С потерями
Бит/(Пиксели*Кадры) : 0.228
Размер потока : 647 Мбайт (90%)
Библиотека кодирования : XviD 1.2.1 (UTC 2008-12-04)

Аудио
Идентификатор : 1
Формат : AC-3
Формат/Информация : Audio Coding 3
Расширение режима : CM (complete main)
Параметр Endianness формата : Big
Идентификатор кодека : 2000
Продолжительность : 50 м.
Вид битрейта : Постоянный
Битрейт : 192 Кбит/сек
Каналы : 2 канала
Расположение каналов : Front: L R
Частота : 48,0 КГц
Метод сжатия : С потерями
Размер потока : 69,0 Мбайт (10%)
Выравнивание : Разделение по промежуткам
Продолжительность промежутка : 40 мс. (1,00 видеокадр)
Время предзагрузки промежутка : 500 мс.
Релиз группы:

picpicpic
Для увеличения картинки щелкните мышкой по превью

Этот торрент недоступен для скачивания без регистрации, однако доступен по публичной magnet-ссылке (источники с публичных трекеров). Перед использованием ссылки прочтите, пожалуйста Пользовательское соглашение, а также как можно дольше оставайтесь на раздаче! Для того, чтобы скачать сам торрент-файл (который видит больше источников), а также для того, чтобы поблагодарить релизера, вам необходимо зарегистрироваться. Если регистрироваться лень - вы можете также попробовать скачать релиз по нашим партнерским ссылкам ниже.

[underverse.su].t64177.torrent
Трекер: Зарегистрирован   [ 12.03.2016 12:37 ]  

Статус: проверено (by makkol at 12.03.2016 13:57)
Поблагодарили: пока никто не поблагодарил...
Тип торрента: публичный - доступные источники с открытых трекеров: 
Размер: 720 MB (занимает 0,16 DVDR, для записи нужно 1 болванка DVDR/RW)
 
 
Похожие темы
Форум Тема Автор Торрент Отв. Посл. сооб.
Личности Владимир Гостюхин. Герой не нашего времени (Александра Горбачева) [2010 г., документальный, биография, кинематограф, IPTVRip] ARI71
3 | 0

1 | 408

1

08.10.2016 10:23

Классика Владимир Гиляровский - Москва и москвичи (1926) [2002 г., аудиокнига, русская литература, классическая литература, мемуары, MP3, 96 kbps] RUS Паукан
5 | 0

0 | 497

9

06.04.2015 11:09


Яндекс.Метрика powered by Sphinx


В Н И М А Н И Е
Сайт не распространяет и не хранит электронные версии произведений, а лишь бесплатно и без коммерческой выгоды (не требуя взамен платы,
SMS и т.д.) предоставляет доступ к создаваемому пользователями каталогу ссылок на торрент-файлы, которые содержат только списки хеш-сумм.
Убедительная просьба с жалобами обращаться напрямую к пользователю, разместившему торрент файл.

Вверх