Loading...
Error

Медведи Буни: Таинственная зима / Xiong Chumo Zhi Xueling Xiongfeng (Динг Лианг, Фуюань Лью) [2015 г., мультфильм, комедия, семейный, приключения, WEB-DLRip] Dub (Line)

Статистика раздачи
Размер:  1,37 GB   |    Зарегистрирован:  8 месяцев   |    Скачан:  17 раз

Полного источника не было: 1 месяц 29 дней

Сидов:  0  |  0 KB/s  ]   Личеров:  0  |  0 KB/s  ]

* - сиды/пиры с внешних источников

   
 
Автор Сообщение

makkol Пол:Муж

11-Мар-2016 22:16

Медведи Буни: Таинственная зима / Xiong Chumo Zhi Xueling Xiongfeng


Год выпуска: 2015
Жанр: мультфильм, комедия, семейный, приключения
Производство: Китай [Warner Bros., Le Vision Pictures (Tianjin) Co]
Режиссер: Динг Лианг, Фуюань Лью
Роли озвучивали: Дженни Энсел, Рик Джей Глен, Этан Кили, Ютан Менг, Че Деверуа Скотт Райнхарт, Яодонг Сан, Шиван Ламсден, Пол «Макс» Райнхарт, Джастин Джозеф Вилер
Сюжет фильма:
В лесу бушует невиданная снежная буря, когда на Сосновой горе неожиданно появляется загадочное существо. Вслед за ним прибывают несколько незнакомцев, которые устраивают настоящий переполох, пытаясь поймать сказочного монстра. Они уверены, что непонятный зверь собирается уничтожить Сосновую гору.

  • Мировая премьера: 30 января 2015
  • Российская премьера: 11 февраля 2016


Качество видео: WEB-DLRip

Продолжительность: 01:35:47
Формат: AVI
Видео: XviD, 720x304 (2.35:1), 24.000 fps, 1841 kbps
Аудио: русский, дублированный (чистый звук), AC3 2.0, 48 kHz, 192 kbps

Код:

Формат                                   : AVI
Формат/Информация                        : Audio Video Interleave
Размер файла                             : 1,37 Гбайт
Продолжительность                        : 1 ч. 35 м.
Общий поток                              : 2043 Кбит/сек
Программа кодирования                    : VirtualDubMod 1.5.10.3 | www.virtualdub-fr.org || (build 2550/release)
Библиотека кодирования                   : VirtualDubMod build 2550/release

Видео
Идентификатор                            : 0
Формат                                   : MPEG-4 Visual
Профиль формата                          : Advanced Simple@L5
Параметр BVOP формата                    : 2
Параметр QPel формата                    : Нет
Параметр GMC формата                     : Без точки перехода
Параметр матрицы формата                 : Default (MPEG)
Идентификатор кодека                     : XVID
Идентификатор кодека/Подсказка           : XviD
Продолжительность                        : 1 ч. 35 м.
Битрейт                                  : 1841 Кбит/сек
Ширина                                   : 720 пикселей
Высота                                   : 304 пикселя
Соотношение сторон                       : 2,35:1
Частота кадров                           : 24,000 кадра/сек
Цветовое пространство                    : YUV
Субдискретизация насыщенности            : 4:2:0
Битовая глубина                          : 8 бит
Тип развёртки                            : Прогрессивная
Метод сжатия                             : С потерями
Бит/(Пиксели*Кадры)                      : 0.351
Размер потока                            : 1,23 Гбайт (90%)
Библиотека кодирования                   : XviD 1.2.1 (UTC 2008-12-04)

Аудио
Идентификатор                            : 1
Формат                                   : AC-3
Формат/Информация                        : Audio Coding 3
Расширение режима                        : CM (complete main)
Параметр Endianness формата              : Big
Идентификатор кодека                     : 2000
Продолжительность                        : 1 ч. 35 м.
Вид битрейта                             : Постоянный
Битрейт                                  : 192 Кбит/сек
Каналы                                   : 2 канала
Расположение каналов                     : Front: L R
Частота                                  : 48,0 КГц
Битовая глубина                          : 16 бит
Метод сжатия                             : С потерями
Размер потока                            : 132 Мбайт (9%)
Выравнивание                             : Разделение по промежуткам
Продолжительность промежутка             : 42  мс. (1,00 видеокадр)
Время предзагрузки промежутка            : 500  мс.
picpicpicpicpic
Для увеличения картинки щелкните мышкой по превью

Этот торрент недоступен для скачивания без регистрации, однако доступен по публичной magnet-ссылке (источники с публичных трекеров). Перед использованием ссылки прочтите, пожалуйста Пользовательское соглашение, а также как можно дольше оставайтесь на раздаче! Для того, чтобы скачать сам торрент-файл (который видит больше источников), а также для того, чтобы поблагодарить релизера, вам необходимо зарегистрироваться. Если регистрироваться лень - вы можете также попробовать скачать релиз по нашим партнерским ссылкам ниже.

[underverse.su].t64158.torrent
Трекер: Зарегистрирован   [ 11.03.2016 22:16 ]  

Статус: T временная (by makkol at 15.03.2016 22:47)
Поблагодарили: 1 человек
Тип торрента: публичный - доступные источники с открытых трекеров: 
Размер: 1,37 GB (занимает 0,31 DVDR, для записи нужно 1 болванка DVDR/RW)
 
 
Похожие темы
Форум Тема Автор Торрент Отв. Посл. сооб.
T Зарубежные мультфильмы Медведи Буни: Таинственная зима / Xiong Chumo Zhi Xueling Xiongfeng (Динг Лианг / Ding Liang, Фуюань Лью / Fuyuan Liu) [2015 г., мультфильм, комедия, WEB-DLRip] Dub (iTunes) 90ytr90
134 | 2

0 | 560

10

29.05.2016 21:10

T Мультфильмы [HDDVDRip / BDRip / WEB-DL / HDTV 1080/720р] Медведи Буни: Таинственная зима / Xiong Chumo Zhi Xueling Xiongfeng (Динг Лианг, Фуюань Лью) [2015 г., мультфильм, комедия, семейный, приключения, WEB-DL 1080p] Dub (Line) makkol
4 | 1

0 | 671

19

11.03.2016 22:25


Яндекс.Метрика powered by Sphinx


В Н И М А Н И Е
Сайт не распространяет и не хранит электронные версии произведений, а лишь бесплатно и без коммерческой выгоды (не требуя взамен платы,
SMS и т.д.) предоставляет доступ к создаваемому пользователями каталогу ссылок на торрент-файлы, которые содержат только списки хеш-сумм.
Убедительная просьба с жалобами обращаться напрямую к пользователю, разместившему торрент файл.

Вверх