Loading...
Error

Живые драконы (1-3 серии из 3) / Dragons Alive [2004 г., документальный, флора, фауна, DVDRip] VO

Статистика раздачи
Размер:  2,04 GB   |    Зарегистрирован:  8 месяцев   |    Скачан:  5 раз

Полного источника не было: 19 часов

Сидов:  0  |  0 KB/s  ]   Личеров:  0  |  0 KB/s  ]

* - сиды/пиры с внешних источников

   
 
Автор Сообщение

ARI71 Пол:Муж

11-Мар-2016 08:29

Живые драконы (1-3 серии из 3) / Dragons Alive


Год выпуска: 2004
Жанр: документальный, флора, фауна
Страна: Великобритания
Студия: BBC Bristol
Продолжительность: 3 x ~ 00:49:06
Перевод: русский, одноголосый (профессиональный)
Режиссер: BBC
В ролях: Ллойд Оуэн
Сюжет фильма:
Давным-давно закончилась эпоха динозавров. И теперь только их останки, хранящиеся в палеонтологических музеях мира, напоминают нам о былой мощи рептилий, когда-то царствовавших на планете. Многое изменилось с тех пор. Однако их потомки до сих пор населяют нашу планету и могут быть очень опасны. И кто знает, может быть в обозримом будущем власть на Земле снова будет принадлежать рептилиям. Новый сериал ВВС открывает перед нами таинственный и опасный мир рептилий - самых древних и загадочных существ на планете. С помощью последних достижений съемочной техники и компьютерной графики стало возможным увидеть насколько велика изобретательность и способность к выживанию этих удивительных созданий, предки которых населяли нашу планету за много тысяч лет до появления первого человека.


Качество видео: DVDRip

Формат: AVI
Видео: 720x544 (1.32:1), 25 fps, XviD build 47 ~1788 kbps avg, 0.18 bit/pixel
Аудио: 48 kHz, AC3 Dolby Digital, 2/0 (L,R) ch, ~192.00 kbps avg
(тех. данные всех серий идентичны)
1. Господствующие рептилии
2. Умные рептилии
3. Рептилии и будущее

Код:

Общее
Полное имя : D:\BBS.Zhivye.drakony.(3.seriy.iz.3).2004.Xvid.DVDRip.*другой трекер*\Umnye.reptilii.2004.Xvid.DVDRip.*другой трекер*.avi
Формат : AVI
Формат/Информация : Audio Video Interleave
Размер файла : 698 Мбайт
Продолжительность : 49 м.
Общий поток : 1987 Кбит/сек
Программа кодирования : VirtualDubMod 1.5.4.1 (build 2178/release)
Библиотека кодирования : VirtualDubMod build 2178/release

Видео
Идентификатор : 0
Формат : MPEG-4 Visual
Профиль формата : Advanced Simple@L5
Параметр BVOP формата : 1
Параметр QPel формата : Нет
Параметр GMC формата : Без точки перехода
Параметр матрицы формата : Выборочная
Идентификатор кодека : XVID
Идентификатор кодека/Подсказка : XviD
Продолжительность : 49 м.
Битрейт : 1788 Кбит/сек
Ширина : 720 пикселей
Высота : 544 пикселя
Соотношение сторон : 4:3
Частота кадров : 25,000 кадров/сек
Цветовое пространство : YUV
Субдискретизация насыщенности : 4:2:0
Битовая глубина : 8 бит
Тип развёртки : Прогрессивная
Метод сжатия : С потерями
Бит/(Пиксели*Кадры) : 0.183
Размер потока : 628 Мбайт (90%)
Библиотека кодирования : XviD 1.2.0.dev47 (UTC 2006-11-01)

Аудио
Идентификатор : 1
Формат : AC-3
Формат/Информация : Audio Coding 3
Расширение режима : CM (complete main)
Параметр Endianness формата : Big
Идентификатор кодека : 2000
Продолжительность : 49 м.
Вид битрейта : Постоянный
Битрейт : 192 Кбит/сек
Каналы : 2 канала
Расположение каналов : Front: L R
Частота : 48,0 КГц
Метод сжатия : С потерями
Размер потока : 67,5 Мбайт (10%)
Выравнивание : Разделение по промежуткам
Продолжительность промежутка : 96 мс. (2,40 видеокадра)
Время предзагрузки промежутка : 96 мс.
Язык : Russian
Релиз группы:

picpicpicpicpicpic
Для увеличения картинки щелкните мышкой по превью

Этот торрент недоступен для скачивания без регистрации, однако доступен по публичной magnet-ссылке (источники с публичных трекеров). Перед использованием ссылки прочтите, пожалуйста Пользовательское соглашение, а также как можно дольше оставайтесь на раздаче! Для того, чтобы скачать сам торрент-файл (который видит больше источников), а также для того, чтобы поблагодарить релизера, вам необходимо зарегистрироваться. Если регистрироваться лень - вы можете также попробовать скачать релиз по нашим партнерским ссылкам ниже.

[underverse.su].t64136.torrent
Трекер: Зарегистрирован   [ 11.03.2016 08:29 ]  

Статус: проверено (by makkol at 11.03.2016 09:52)
Поблагодарили: 2 человека
Тип торрента: публичный - доступные источники с открытых трекеров: 
Размер: 2,04 GB (занимает 0,47 DVDR, для записи нужно 1 болванка DVDR/RW)
 
 

ARI71 Пол:Муж

11-Мар-2016 10:52


Яндекс.Метрика powered by Sphinx


В Н И М А Н И Е
Сайт не распространяет и не хранит электронные версии произведений, а лишь бесплатно и без коммерческой выгоды (не требуя взамен платы,
SMS и т.д.) предоставляет доступ к создаваемому пользователями каталогу ссылок на торрент-файлы, которые содержат только списки хеш-сумм.
Убедительная просьба с жалобами обращаться напрямую к пользователю, разместившему торрент файл.

Вверх