Loading...
Error

Брат на брата (1-4 серии из 4) [2010 г., документальный, биография, история, хроника, SatRip]

Статистика раздачи
Размер:  1,56 GB   |    Зарегистрирован:  8 месяцев   |    Скачан:  6 раз

Полного источника не было: 1 час 24 минуты

Сидов:  0  |  0 KB/s  ]   Личеров:  0  |  0 KB/s  ]

* - сиды/пиры с внешних источников

   
 
Автор Сообщение

ARI71 Пол:Муж

09-Мар-2016 20:04

Брат на брата (1-4 серии из 4)


Год выпуска: 2010
Жанр: документальный, биография, история, хроника
Страна: Россия
Студия: ООО "Продюсерский центр "Свободный полет"
Продолжительность: 4 х ~ 00:40:00
Перевод: русский, (оригинал)
Режиссер: Илья Лобов
Ведущий: Евгений Кириченко
Сюжет фильма:
Гражданская война в России обнажила конфликт, возникший между гражданами одного государства, одного социального строя и даже одной семьи. На фронтах Гражданской войны сталкивались в ожесточенной схватке бывшие однокашники и однополчане. Многие из них были не только знакомы по офицерскому училищу или по участию в боевых действиях русско-японской войны или Первой Мировой, но даже связаны родственными узами. Но и это не мешало им уничтожать друзей и близких.
Качество видео: SatRip

Формат: AVI
Видео: 704x400 (1.76:1), 25 fps, XviD MPEG-4 ~1325 kbps avg, 0.19 bit/pixel
Аудио: 48 kHz, MPEG Layer 3, 2 ch, ~128.00 kbps avg
(тех. данные всех серий идентичны)
Фильм 1-й. - Рассказывает о драматической судьбе генерала М. Бонч-Бруевича и генерала Л. Корнилова, оказавшихся по разным сторонам баррикад в годы Гражданской войны.

Фильм 2-й. - «Алексей Брусилов - Антон Деникин». Он расскажет нам о драматической судьбе двух царских генералов Алексее Брусилове и Антоне Деникине, оказавшихся по разные стороны баррикад в годы Гражданской войны.

Фильм 3-й. - В фильме рассказывается история двух бывших сослуживцев и друзей Петра Махрова и Николая Петина, которые в годы Гражданской войны вынуждены были, оказавшись на одном фронте, поднять оружие друг против друга.

Фильм 4-й. - В этом фильме рассказывается реальная история двух родных братьев, потомственных белых офицеров. Михаил Свечин был командиром лейб-гвардии кавалергардского полка, воевавшего на стороне белых, и закончил жизнь в эмиграции. Александр Свечин стал главным военным теоретиком и стратегом Красной Армии. Он погиб в годы сталинских репрессий.

Код:

Общее
Полное имя : D:\brat_na_brata_na_brata\Brat.na.brata.(01.film).2010.XviD.SATRip.avi
Формат : AVI
Формат/Информация : Audio Video Interleave
Размер файла : 399 Мбайт
Продолжительность : 38 м.
Общий поток : 1463 Кбит/сек
Программа кодирования : VirtualDubMod 1.5.10.2 (build 2540/release)
Библиотека кодирования : VirtualDubMod build 2540/release

Видео
Идентификатор : 0
Формат : MPEG-4 Visual
Профиль формата : Advanced Simple@L5
Параметр BVOP формата : 2
Параметр QPel формата : Нет
Параметр GMC формата : Без точки перехода
Параметр матрицы формата : Default (MPEG)
Режим смешивания : Сжатый битовый поток
Идентификатор кодека : DIVX
Идентификатор кодека/Информация : Project Mayo
Идентификатор кодека/Подсказка : DivX 4
Продолжительность : 38 м.
Битрейт : 1325 Кбит/сек
Ширина : 704 пикселя
Высота : 400 пикселей
Соотношение сторон : 16:9
Частота кадров : 25,000 кадров/сек
Цветовое пространство : YUV
Субдискретизация насыщенности : 4:2:0
Битовая глубина : 8 бит
Тип развёртки : Прогрессивная
Метод сжатия : С потерями
Бит/(Пиксели*Кадры) : 0.188
Размер потока : 361 Мбайт (91%)
Библиотека кодирования : XviD 1.2.1 (UTC 2008-12-04)

Аудио
Идентификатор : 1
Формат : MPEG Audio
Версия формата : Version 1
Профиль формата : Layer 3
Режим : Joint stereo
Расширение режима : MS Stereo
Идентификатор кодека : 55
Идентификатор кодека/Подсказка : MP3
Продолжительность : 38 м.
Вид битрейта : Постоянный
Битрейт : 128 Кбит/сек
Каналы : 2 канала
Частота : 48,0 КГц
Метод сжатия : С потерями
Размер потока : 34,9 Мбайт (9%)
Выравнивание : Соединение по промежуткам
Продолжительность промежутка : 40 мс. (1,00 видеокадр)
Время предзагрузки промежутка : 504 мс.
picpicpicpicpic
Для увеличения картинки щелкните мышкой по превью

Этот торрент недоступен для скачивания без регистрации, однако доступен по публичной magnet-ссылке (источники с публичных трекеров). Перед использованием ссылки прочтите, пожалуйста Пользовательское соглашение, а также как можно дольше оставайтесь на раздаче! Для того, чтобы скачать сам торрент-файл (который видит больше источников), а также для того, чтобы поблагодарить релизера, вам необходимо зарегистрироваться. Если регистрироваться лень - вы можете также попробовать скачать релиз по нашим партнерским ссылкам ниже.

[underverse.su].t64103.torrent
Трекер: Зарегистрирован   [ 09.03.2016 20:04 ]  

Статус: проверено (by makkol at 09.03.2016 22:32)
Поблагодарили: пока никто не поблагодарил...
Тип торрента: публичный - доступные источники с открытых трекеров: 
Размер: 1,56 GB (занимает 0,36 DVDR, для записи нужно 1 болванка DVDR/RW)
 
 

Яндекс.Метрика powered by Sphinx


В Н И М А Н И Е
Сайт не распространяет и не хранит электронные версии произведений, а лишь бесплатно и без коммерческой выгоды (не требуя взамен платы,
SMS и т.д.) предоставляет доступ к создаваемому пользователями каталогу ссылок на торрент-файлы, которые содержат только списки хеш-сумм.
Убедительная просьба с жалобами обращаться напрямую к пользователю, разместившему торрент файл.

Вверх