Loading...
Error

В поисках Бобби Фишера / Выбор игры / Searching for Bobby Fischer (Стивен Зеллиан) [1993 г., драма, биография, WEB-DLRip] DVO + MVO + VO + Original + Subs

Статистика раздачи
Размер:  2,1 GB   |    Зарегистрирован:  8 месяцев   |    Скачан:  4 раза

Полного источника не было: 3 месяца 10 дней

Сидов:  0  |  0 KB/s  ]   Личеров:  0  |  0 KB/s  ]

* - сиды/пиры с внешних источников

   
 
Автор Сообщение

makkol Пол:Муж

08-Мар-2016 15:25

В поисках Бобби Фишера / Выбор игры / Searching for Bobby Fischer


Год выпуска: 1993
Жанр: драма, биография
Производство: США [Mirage Entertainment]
Режиссер: Стивен Зеллиан
В ролях: Макс Померанц, Джо Мантенья, Джоан Аллен, Бен Кингсли, Лоуренс Фишборн, Майкл Ниренберг, Роберт Стивенс (I), Дэвид Пэймер, Хэл Скардино, Васек Симек, Уильям Х. Мэйси, Дэн Хедайя, Лора Линни, Энтони Хилд, Стивен Рандаццо, Челси Мур, Джош Мостел, Джош Корнблат, Тони Шэлоуб, Остин Пендлтон, Том МакГауэн, Она Флетчер, Камран Ширази, Тони Де Сантис, Джон Буржуа, Мария Рикосса, Эндрю Сарделла, Натан Картер, Николас Тэйлор
Сюжет фильма:
Фильм открывается черно-белыми кадрами хроники легендарного шахматиста Бобби Фишера, о котором говорит дебютант кино Макс Померанц. Его герой, Джош Уэйтцкин (фильм поставлен по реальным событиям), — обычный семилетний мальчик, одаренный талантом игры в шахматы. Отец его (Мантенья) одержимо стремится сделать из него чемпиона. Что важнее: детство, любовь отца и сына или карьера в спорте, где вершин достигают немногие? Есть в жизни вещи, которыми нельзя пожертвовать, как фигурой на шахматной доске.
Экранизация одноимённой книги Фреда Вайцкина

  • Мировая премьера: 11 августа 1993


Качество видео: WEB-DLRip

Продолжительность: 01:49:59
Формат: AVI
Видео: XviD, 720x400 (1.80:1), 23.976 fps, 1441 kbps
Аудио #1: русский, профессиональный двухголосый закадровый (НТВ+), AC3 5.1, 48 kHz, 448 kbps
Аудио #2: русский, профессиональный многоголосый закадровый (Премьер Видео Фильм), AC3 2.0, 48 kHz, 192 kbps - отдельно
Аудио #3: русский, любительский одноголосый закадровый (Stalk), AC3 2.0, 48 kHz, 192 kbps - отдельно
Аудио #4: английский, оригинал, AC3 5.1, 48 kHz, 448 kbps - отдельно
Субтитры: русские, английские внешние, SRT

Код:

Формат                                   : AVI
Формат/Информация                        : Audio Video Interleave
Размер файла                             : 1,46 Гбайт
Продолжительность                        : 1 ч. 49 м.
Общий поток                              : 1898 Кбит/сек
Программа кодирования                    : VirtualDubMod 1.5.10.3 | www.virtualdub-fr.org || (build 2550/release)
Библиотека кодирования                   : VirtualDubMod build 2550/release

Видео
Идентификатор                            : 0
Формат                                   : MPEG-4 Visual
Профиль формата                          : Advanced Simple@L5
Параметр BVOP формата                    : 1
Параметр QPel формата                    : Нет
Параметр GMC формата                     : Без точки перехода
Параметр матрицы формата                 : Выборочная
Идентификатор кодека                     : XVID
Идентификатор кодека/Подсказка           : XviD
Продолжительность                        : 1 ч. 49 м.
Битрейт                                  : 1441 Кбит/сек
Ширина                                   : 720 пикселей
Высота                                   : 400 пикселей
Соотношение сторон                       : 16:9
Частота кадров                           : 23,976 кадра/сек
Цветовое пространство                    : YUV
Субдискретизация насыщенности            : 4:2:0
Битовая глубина                          : 8 бит
Тип развёртки                            : Прогрессивная
Метод сжатия                             : С потерями
Бит/(Пиксели*Кадры)                      : 0.209
Размер потока                            : 1,11 Гбайт (76%)
Библиотека кодирования                   : XviD 73

Аудио
Идентификатор                            : 1
Формат                                   : AC-3
Формат/Информация                        : Audio Coding 3
Расширение режима                        : CM (complete main)
Параметр Endianness формата              : Big
Идентификатор кодека                     : 2000
Продолжительность                        : 1 ч. 49 м.
Вид битрейта                             : Постоянный
Битрейт                                  : 448 Кбит/сек
Каналы                                   : 6 каналов
Расположение каналов                     : Front: L C R, Side: L R, LFE
Частота                                  : 48,0 КГц
Битовая глубина                          : 16 бит
Метод сжатия                             : С потерями
Размер потока                            : 352 Мбайт (24%)
Выравнивание                             : Разделение по промежуткам
Продолжительность промежутка             : 42  мс. (1,00 видеокадр)
Время предзагрузки промежутка            : 500  мс.
picpicpicpicpic
Для увеличения картинки щелкните мышкой по превью

Этот торрент недоступен для скачивания без регистрации, однако доступен по публичной magnet-ссылке (источники с публичных трекеров). Перед использованием ссылки прочтите, пожалуйста Пользовательское соглашение, а также как можно дольше оставайтесь на раздаче! Для того, чтобы скачать сам торрент-файл (который видит больше источников), а также для того, чтобы поблагодарить релизера, вам необходимо зарегистрироваться. Если регистрироваться лень - вы можете также попробовать скачать релиз по нашим партнерским ссылкам ниже.

[underverse.su].t64046.torrent
Трекер: Зарегистрирован   [ 08.03.2016 15:25 ]  

Статус: проверено (by makkol at 09.03.2016 23:30)
Поблагодарили: пока никто не поблагодарил...
Тип торрента: публичный - доступные источники с открытых трекеров: 
Размер: 2,1 GB (занимает 0,48 DVDR, для записи нужно 1 болванка DVDR/RW)
 
 
Похожие темы
Форум Тема Автор Торрент Отв. Посл. сооб.
Зарубежное кино [DVDRip, Low-Res HDRip, и т.д.] В поисках блаженства / Finding Bliss (Джули Дэвис) [2009 г., мелодрама, комедия, DVDRip] VO [den904] Паукан
0 | 1

0 | 1887

8

21.11.2013 14:09

Зарубежное кино [DVDRip, Low-Res HDRip, и т.д.] В поисках радости / Finding Joy (Карло Де Роза) [2013 г., комедия, драма, WEB-DLRip] MVO (НТВ+) 90ytr90
0 | 0

0 | 1863

8

24.11.2013 12:00

Зарубежное кино [DVDRip, Low-Res HDRip, и т.д.] В поисках Фанни / Finding Fanny (Хоми Ададжаниа / Homi Adajania) [2014 г., драма, мелодрама, комедия, DVDRip] MVO (ICG) + Original (Hin) + Sub (Rus) 90ytr90
1 | 1

0 | 460

1

25.01.2015 13:27

Зарубежное кино [DVDRip, Low-Res HDRip, и т.д.] В поисках галактики / Galaxy Quest (Дин Паризо / Dean Parisot) [1999 г., фантастика, комедия, приключения, BDRip] MVO + Original (Eng) + AVO (Ю.Живов) + MVO (ОРТ) 90ytr90
1 | 0

0 | 243

4

31.01.2015 21:22

Зарубежное кино [DVDRip, Low-Res HDRip, и т.д.] В поисках галактики / Galaxy Quest (Дин Паризо / Dean Parisot) [1999 г., фантастика, комедия, приключения, BDRip] MVO + Original (Eng) + Sub (Rus, Eng) 90ytr90
1 | 0

0 | 284

9

31.01.2015 21:23

Зарубежное кино [DVDRip, Low-Res HDRip, и т.д.] В поисках Рождества / Finding Christmas (Харви Кросслэнд) [2013 г., мелодрама, SatRip] MVO makkol
2 | 0

0 | 321

1

17.06.2015 22:09

Зарубежное кино [DVDRip, Low-Res HDRip, и т.д.] В поисках чудес / Looking for Miracles (Кевин Салливан ) [1989 г., драма, семейный, DVDRip] VO + Original makkol
0 | 0

0 | 616

3

12.03.2016 11:49

T Зарубежное кино [DVDRip, Low-Res HDRip, и т.д.] В поисках огня / Digging for Fire (Джо Сванберг) [2015 г., драма, WEB-DLRip] MVO makkol
1 | 0

0 | 718

22

13.03.2016 23:32

Зарубежные мультфильмы В поисках Жу / Quest for Zhu (Боб Дусетте ) [2011 г., мультфильм,приключения,семейный, HDRip] МУХА~
0 | 0

1 | 1335

20

30.10.2011 12:32

Зарубежные мультфильмы В поисках Дори / Finding Dory (Эндрю Стэнтон / Andrew Stanton, Энгус МакЛэйн / Angus MacLane) [2016 г., мультфильм, комедия, приключения, семейный, BDRip-AVC] Dub + Original (Eng) + Sub (Rus, Eng) 90ytr90
62 | 4

0 | 158

2

19.11.2016 07:23


Яндекс.Метрика powered by Sphinx


В Н И М А Н И Е
Сайт не распространяет и не хранит электронные версии произведений, а лишь бесплатно и без коммерческой выгоды (не требуя взамен платы,
SMS и т.д.) предоставляет доступ к создаваемому пользователями каталогу ссылок на торрент-файлы, которые содержат только списки хеш-сумм.
Убедительная просьба с жалобами обращаться напрямую к пользователю, разместившему торрент файл.

Вверх