Loading...
Error

Билет на Марс [2013 г., документальный, космос, наука, SatRip]

Статистика раздачи
Размер:  597 MB   |    Зарегистрирован:  8 месяцев   |    Скачан:  5 раз

Полного источника не было: 1 месяц 7 дней

Сидов:  0  |  0 KB/s  ]   Личеров:  0  |  0 KB/s  ]

* - сиды/пиры с внешних источников

   
 
Автор Сообщение

ARI71 Пол:Муж

08-Мар-2016 14:05

Билет на Марс


Год выпуска: 2013
Жанр: документальный, космос, наука
Страна: Россия
Студия: Телеканал "Астрахань 24"
Продолжительность: 00:48:05
Перевод: русский, (оригинал)
Режиссер: Александр Громыко
Сюжет фильма:
Испепеляющая жара на Венере. Смертельный холод на Титане. Полный вакуум на Луне. Условия на Марсе более пригодны для освоения. А это значит, человеку под силу не только высадиться на Красной планете, но и колонизировать ее. Представители Роскосмоса и Европейского космического агентства уверены: полет на Марс должен состояться не позднее 2033 года. И проект скорее всего будет многонациональным. Как невесомость влияет на тело человека, часто можно увидеть невооруженным глазом, а как она действует на отдельно взятую клетку? Как осуществляется подготовка человека к полету в космос? Как меняется его ходьба, работа сердца, зрение? Человечество уже достигло той ступени развития, когда оно может позволить себе шагнуть за пределы своей колыбели и приступить к освоению иных планет. Справится ли оно с этим?
Качество видео: SatRip

Формат: AVI
Видео: 704x400 (1.76:1), 25 fps, XviD build 64 ~1533 kbps avg, 0.22 bit/pixel
Аудио: 48 kHz, MPEG Layer 3, 2 ch, ~192.00 kbps avg

Код:

Общее
Полное имя : D:\Билет на Марс.avi
Формат : AVI
Формат/Информация : Audio Video Interleave
Размер файла : 597 Мбайт
Продолжительность : 48 м.
Общий поток : 1735 Кбит/сек

Видео
Идентификатор : 0
Формат : MPEG-4 Visual
Профиль формата : Advanced Simple@L5
Параметр BVOP формата : 2
Параметр QPel формата : Нет
Параметр GMC формата : Без точки перехода
Параметр матрицы формата : Default (H.263)
Идентификатор кодека : XVID
Идентификатор кодека/Подсказка : XviD
Продолжительность : 48 м.
Битрейт : 1533 Кбит/сек
Ширина : 704 пикселя
Высота : 400 пикселей
Соотношение сторон : 16:9
Частота кадров : 25,000 кадров/сек
Цветовое пространство : YUV
Субдискретизация насыщенности : 4:2:0
Битовая глубина : 8 бит
Тип развёртки : Прогрессивная
Метод сжатия : С потерями
Бит/(Пиксели*Кадры) : 0.218
Размер потока : 527 Мбайт (88%)
Библиотека кодирования : XviD 64

Аудио
Идентификатор : 1
Формат : MPEG Audio
Версия формата : Version 1
Профиль формата : Layer 3
Режим : Joint stereo
Расширение режима : MS Stereo
Идентификатор кодека : 55
Идентификатор кодека/Подсказка : MP3
Продолжительность : 48 м.
Вид битрейта : Постоянный
Битрейт : 192 Кбит/сек
Каналы : 2 канала
Частота : 48,0 КГц
Метод сжатия : С потерями
Размер потока : 66,1 Мбайт (11%)
Выравнивание : Разделение по промежуткам
Продолжительность промежутка : 40 мс. (1,00 видеокадр)
Время предзагрузки промежутка : 500 мс.
picpicpicpicpic
Для увеличения картинки щелкните мышкой по превью

Этот торрент недоступен для скачивания без регистрации, однако доступен по публичной magnet-ссылке (источники с публичных трекеров). Перед использованием ссылки прочтите, пожалуйста Пользовательское соглашение, а также как можно дольше оставайтесь на раздаче! Для того, чтобы скачать сам торрент-файл (который видит больше источников), а также для того, чтобы поблагодарить релизера, вам необходимо зарегистрироваться. Если регистрироваться лень - вы можете также попробовать скачать релиз по нашим партнерским ссылкам ниже.

[underverse.su].t64039.torrent
Трекер: Зарегистрирован   [ 08.03.2016 14:05 ]  

Статус: проверено (by 90ytr90 at 08.03.2016 15:38)
Поблагодарили: пока никто не поблагодарил...
Тип торрента: публичный - доступные источники с открытых трекеров: 
Размер: 597 MB (занимает 0,13 DVDR, для записи нужно 1 болванка DVDR/RW)
 
 

Яндекс.Метрика powered by Sphinx


В Н И М А Н И Е
Сайт не распространяет и не хранит электронные версии произведений, а лишь бесплатно и без коммерческой выгоды (не требуя взамен платы,
SMS и т.д.) предоставляет доступ к создаваемому пользователями каталогу ссылок на торрент-файлы, которые содержат только списки хеш-сумм.
Убедительная просьба с жалобами обращаться напрямую к пользователю, разместившему торрент файл.

Вверх