Loading...
Error

Андрей Миронов. Я блесну непрошеной слезой [2016 г., документальный, биография, SatRip]

Статистика раздачи
Размер:  719 MB   |    Зарегистрирован:  8 месяцев   |    Скачан:  15 раз

Полного источника не было: 9 часов

Сидов:  0  |  0 KB/s  ]   Личеров:  0  |  0 KB/s  ]

* - сиды/пиры с внешних источников

   
 
Автор Сообщение

ARI71 Пол:Муж

07-Мар-2016 22:32

Андрей Миронов. Я блесну непрошеной слезой


Год выпуска: 2016
Жанр: документальный, биография
Страна: Россия
Студия: Красный квадрат
Продолжительность: 00:51:43
Перевод: русский, (оригинал)
Режиссер: Константин Мурашев
Сюжет фильма:
Андрея Миронова большинство зрителей воспринимали стереотипно: баловень судьбы, любимец женщин, веселый парень - все у него, мол, получалось легко и просто... Но какой ценой давалась ему эта легкость - никто даже не задумывался! Складывалось впечатление: все, что делал Миронов, - он делал ради кого-то. Ради мамы, ради семьи, ради зрителей! Он не жалел ни сил, ни здоровья! И так получилось, что пожить ради себя актер не успел...

Андре́й Алекса́ндрович Миро́нов (фамилия при рождении — Мена́кер; 7 марта 1941, Москва — 16 августа 1987, Рига) — советский актёр театра и кино, артист эстрады. Народный артист РСФСР (1980).

Качество видео: SatRip

Формат: AVI
Видео: 704x448 (1.57:1), 25 fps, XviD build 50 ~1805 kbps avg, 0.23 bit/pixel
Аудио: 48 kHz, MPEG Layer 3, 2 ch, ~128.00 kbps avg

Код:

Общее
Полное имя : D:\Ya.Blesnu.Neproshennoi.Slezoi.avi
Формат : AVI
Формат/Информация : Audio Video Interleave
Размер файла : 719 Мбайт
Продолжительность : 51 м.
Общий поток : 1943 Кбит/сек
Программа кодирования : VirtualDubMod 1.5.10.3 | www.virtualdub-fr.org || (build 2550/release)
Библиотека кодирования : VirtualDubMod build 2550/release

Видео
Идентификатор : 0
Формат : MPEG-4 Visual
Профиль формата : Advanced Simple@L5
Параметр BVOP формата : 1
Параметр QPel формата : Нет
Параметр GMC формата : Без точки перехода
Параметр матрицы формата : Default (MPEG)
Идентификатор кодека : XVID
Идентификатор кодека/Подсказка : XviD
Продолжительность : 51 м.
Битрейт : 1805 Кбит/сек
Ширина : 704 пикселя
Высота : 448 пикселей
Соотношение сторон : 16:10
Частота кадров : 25,000 кадров/сек
Цветовое пространство : YUV
Субдискретизация насыщенности : 4:2:0
Битовая глубина : 8 бит
Тип развёртки : Прогрессивная
Метод сжатия : С потерями
Бит/(Пиксели*Кадры) : 0.229
Размер потока : 668 Мбайт (93%)
Библиотека кодирования : XviD 1.2.1 (UTC 2008-12-04)

Аудио
Идентификатор : 1
Формат : MPEG Audio
Версия формата : Version 1
Профиль формата : Layer 3
Идентификатор кодека : 55
Идентификатор кодека/Подсказка : MP3
Продолжительность : 51 м.
Вид битрейта : Постоянный
Битрейт : 128 Кбит/сек
Каналы : 2 канала
Частота : 48,0 КГц
Метод сжатия : С потерями
Размер потока : 47,3 Мбайт (7%)
Выравнивание : Соединение по промежуткам
Продолжительность промежутка : 40 мс. (1,00 видеокадр)
Время предзагрузки промежутка : 504 мс.
Библиотека кодирования : LAME3.99r
Настройки программы : -m s -V 4 -q 2 -lowpass 17 -b 128
Релиз группы:

picpicpicpic
Для увеличения картинки щелкните мышкой по превью

Этот торрент недоступен для скачивания без регистрации, однако доступен по публичной magnet-ссылке (источники с публичных трекеров). Перед использованием ссылки прочтите, пожалуйста Пользовательское соглашение, а также как можно дольше оставайтесь на раздаче! Для того, чтобы скачать сам торрент-файл (который видит больше источников), а также для того, чтобы поблагодарить релизера, вам необходимо зарегистрироваться. Если регистрироваться лень - вы можете также попробовать скачать релиз по нашим партнерским ссылкам ниже.

[underverse.su].t64021.torrent
Трекер: Зарегистрирован   [ 07.03.2016 22:32 ]  

Статус: проверено (by makkol at 07.03.2016 22:36)
Поблагодарили: 2 человека
Тип торрента: публичный - доступные источники с открытых трекеров: 
Размер: 719 MB (занимает 0,16 DVDR, для записи нужно 1 болванка DVDR/RW)
 
 

Яндекс.Метрика powered by Sphinx


В Н И М А Н И Е
Сайт не распространяет и не хранит электронные версии произведений, а лишь бесплатно и без коммерческой выгоды (не требуя взамен платы,
SMS и т.д.) предоставляет доступ к создаваемому пользователями каталогу ссылок на торрент-файлы, которые содержат только списки хеш-сумм.
Убедительная просьба с жалобами обращаться напрямую к пользователю, разместившему торрент файл.

Вверх