Loading...
Error

Михаил Горбачев: Сегодня и тогда [2015 г., документальный, биография, HDTVRip]

Статистика раздачи
Размер:  1,06 GB   |    Зарегистрирован:  8 месяцев   |    Скачан:  14 раз

Полного источника не было: 5 часов

Сидов:  0  |  0 KB/s  ]   Личеров:  0  |  0 KB/s  ]

* - сиды/пиры с внешних источников

   
 
Автор Сообщение

ARI71 Пол:Муж

07-Мар-2016 15:25

Михаил Горбачев: Сегодня и тогда


Год выпуска: 2015
Жанр: документальный, биография
Страна: Россия
Студия: «ЕДИНАЯ МЕДИА ГРУППА», ВГТРК
Продолжительность: 01:15:45
Перевод: русский, (оригинал)
Режиссер: Юрий Ручкин
Автор и ведущий: Сергей Брилев
Сюжет фильма:
Гласность, ускорение, перестройка, распад СССР - все это прочно связано с именем одного человека. Михаил Горбачев, первый и последний президент СССР, отмечает 85-летие. В марте 1985 года Михаил Горбачев был избран генсеком ЦК. И уже в апреле прозвучало слово "перестройка". При нем изменился облик страны и карта современного мира. Распался Советский Союз. Работа над фильмом шла почти два года. Съемки шли по всему миру на Сицилии, Мальте, в Англии, а также глубинках России. Большой эпизод в фильме записан на родине Горбачева - селе Привольное Красногвардейского района Ставрополья. Там же в контрасте с мнениями известных политиков - откровения его друга и интервью, записанные на чудом сохранившихся виноградниках, еще по ту сторону антиалкогольной кампании. Так кто же все-таки он - последний президент Советского Союза: либерал-демократ, внесший огромный вклад в развитие Союза, или политик, разрушивший могущественную страну?
Качество видео: HDTVRip

Формат: AVI
Видео: 720x400 (1.80:1), 25 fps, XviD build 73 ~1798 kbps avg, 0.25 bit/pixel
Аудио: 48 kHz, AC3 Dolby Digital, 2/0 (L,R) ch, ~192.00 kbps avg
Михаи́л Серге́евич Горбачёв (род. 2 марта 1931, село Привольное, Северо-Кавказский край, РСФСР) — советский и российский государственный, политический и общественный деятель.

Последний генеральный секретарь ЦК КПСС. Последний Председатель Президиума Верховного Совета СССР, затем первый председатель Верховного Совета СССР. Единственный Президент СССР.

Код:

Общее
Полное имя : D:\Михаил Горбачев.Сегодня и тогда.2015.HDTVRip.Generalfilm.avi
Формат : AVI
Формат/Информация : Audio Video Interleave
Размер файла : 1,06 Гбайт
Продолжительность : 1 ч. 15 м.
Общий поток : 2000 Кбит/сек
Программа кодирования : VirtualDubMod 1.5.10.3 | www.virtualdub-fr.org || (build 2550/release)
Библиотека кодирования : VirtualDubMod build 2550/release

Видео
Идентификатор : 0
Формат : MPEG-4 Visual
Профиль формата : Advanced Simple@L5
Параметр BVOP формата : 1
Параметр QPel формата : Нет
Параметр GMC формата : Без точки перехода
Параметр матрицы формата : Выборочная
Идентификатор кодека : XVID
Идентификатор кодека/Подсказка : XviD
Продолжительность : 1 ч. 15 м.
Битрейт : 1798 Кбит/сек
Ширина : 720 пикселей
Высота : 400 пикселей
Соотношение сторон : 16:9
Частота кадров : 25,000 кадров/сек
Цветовое пространство : YUV
Субдискретизация насыщенности : 4:2:0
Битовая глубина : 8 бит
Тип развёртки : Прогрессивная
Метод сжатия : С потерями
Бит/(Пиксели*Кадры) : 0.250
Размер потока : 974 Мбайт (90%)
Библиотека кодирования : XviD 73

Аудио
Идентификатор : 1
Формат : AC-3
Формат/Информация : Audio Coding 3
Расширение режима : CM (complete main)
Параметр Endianness формата : Big
Идентификатор кодека : 2000
Продолжительность : 1 ч. 15 м.
Вид битрейта : Постоянный
Битрейт : 192 Кбит/сек
Каналы : 2 канала
Расположение каналов : Front: L R
Частота : 48,0 КГц
Метод сжатия : С потерями
Размер потока : 104 Мбайт (10%)
Выравнивание : Разделение по промежуткам
Продолжительность промежутка : 40 мс. (1,00 видеокадр)
Время предзагрузки промежутка : 500 мс.
picpicpicpicpic
Для увеличения картинки щелкните мышкой по превью

Этот торрент недоступен для скачивания без регистрации, однако доступен по публичной magnet-ссылке (источники с публичных трекеров). Перед использованием ссылки прочтите, пожалуйста Пользовательское соглашение, а также как можно дольше оставайтесь на раздаче! Для того, чтобы скачать сам торрент-файл (который видит больше источников), а также для того, чтобы поблагодарить релизера, вам необходимо зарегистрироваться. Если регистрироваться лень - вы можете также попробовать скачать релиз по нашим партнерским ссылкам ниже.

[underverse.su].t63999.torrent
Трекер: Зарегистрирован   [ 07.03.2016 15:25 ]  

Статус: проверено (by makkol at 07.03.2016 16:20)
Поблагодарили: пока никто не поблагодарил...
Тип торрента: публичный - доступные источники с открытых трекеров: 
Размер: 1,06 GB (занимает 0,24 DVDR, для записи нужно 1 болванка DVDR/RW)
 
 

Яндекс.Метрика powered by Sphinx


В Н И М А Н И Е
Сайт не распространяет и не хранит электронные версии произведений, а лишь бесплатно и без коммерческой выгоды (не требуя взамен платы,
SMS и т.д.) предоставляет доступ к создаваемому пользователями каталогу ссылок на торрент-файлы, которые содержат только списки хеш-сумм.
Убедительная просьба с жалобами обращаться напрямую к пользователю, разместившему торрент файл.

Вверх