Loading...
Error

В царстве гигантских осьминогов / In the kingdom of the giant octopus [1997 г., документальный, познавательный, естествознание, TVRip] VO

Статистика раздачи
Размер:  675 MB   |    Зарегистрирован:  9 месяцев   |    Скачан:  17 раз

Полного источника не было: 16 дней

Сидов:  0  |  0 KB/s  ]   Личеров:  0  |  0 KB/s  ]

* - сиды/пиры с внешних источников

   
 
Автор Сообщение

ARI71 Пол:Муж

07-Мар-2016 12:07

В царстве гигантских осьминогов / In the kingdom of the giant octopus


Год выпуска: 1997
Жанр: документальный, познавательный, естествознание
Страна: Франция
Режиссер: Андреа Кокетти
Сюжет фильма:
У восточного побережья Канады нашло приют одно из самых страшных чудовищ древних легенд и мифов - гигантский осьминог Тихого океана.

Доп. информация:
Призы: Бронзовая ветвь Всемирного фестиваля фильмов о подводном мире (1997)
Качество видео: TVRip

Продолжительность: 00:50:08
Формат: AVI
Видео: DivX 5, MPEG-4, 720x576 (1.25:1), 25 fps, ~1765 kbps avg, 0.17 bit/pixel
Аудио: русский, одноголосый [профессиональный], 48 kHz, MPEG Layer 3, 2 ch, ~103 kbps avg

Код:

Общее
Полное имя : D:\В царстве гигантских осьминогов\В царстве гигантских осьминогов.avi
Формат : AVI
Формат/Информация : Audio Video Interleave
Размер файла : 675 Мбайт
Продолжительность : 50 м.
Режим общего битрейта : Переменный
Общий поток : 1881 Кбит/сек
Программа кодирования : FairUse Wizard - http://fairusewizard.com
Библиотека кодирования : The best and REALLY easy backup tool

Видео
Идентификатор : 0
Формат : MPEG-4 Visual
Профиль формата : Advanced Simple@L5
Параметр BVOP формата : 2
Параметр QPel формата : Нет
Параметр GMC формата : Без точки перехода
Параметр матрицы формата : Default (H.263)
Режим смешивания : Сжатый битовый поток
Идентификатор кодека : DX50
Идентификатор кодека/Подсказка : DivX 5
Продолжительность : 50 м.
Битрейт : 1765 Кбит/сек
Ширина : 720 пикселей
Высота : 576 пикселей
Соотношение сторон : 5:4
Частота кадров : 25,000 кадров/сек
Стандарт вещания : PAL
Цветовое пространство : YUV
Субдискретизация насыщенности : 4:2:0
Битовая глубина : 8 бит
Тип развёртки : Прогрессивная
Метод сжатия : С потерями
Бит/(Пиксели*Кадры) : 0.170
Размер потока : 633 Мбайт (94%)
Библиотека кодирования : XviD 1.2.0.dev47 (UTC 2006-11-01)

Аудио
Идентификатор : 1
Формат : MPEG Audio
Версия формата : Version 1
Профиль формата : Layer 3
Режим : Joint stereo
Расширение режима : MS Stereo
Идентификатор кодека : 55
Идентификатор кодека/Подсказка : MP3
Продолжительность : 50 м.
Вид битрейта : Переменный
Битрейт : 103 Кбит/сек
Номинальный битрейт : 128 Кбит/сек
Каналы : 2 канала
Частота : 48,0 КГц
Метод сжатия : С потерями
Размер потока : 37,0 Мбайт (5%)
Выравнивание : Соединение по промежуткам
Продолжительность промежутка : 24 мс. (0,60 видеокадр)
Время предзагрузки промежутка : 513 мс.
Библиотека кодирования : LAME3.97b
Настройки программы : -m j -V 4 -q 2 -lowpass 17 --abr 128
picpicpicpic
Для увеличения картинки щелкните мышкой по превью

Этот торрент недоступен для скачивания без регистрации, однако доступен по публичной magnet-ссылке (источники с публичных трекеров). Перед использованием ссылки прочтите, пожалуйста Пользовательское соглашение, а также как можно дольше оставайтесь на раздаче! Для того, чтобы скачать сам торрент-файл (который видит больше источников), а также для того, чтобы поблагодарить релизера, вам необходимо зарегистрироваться. Если регистрироваться лень - вы можете также попробовать скачать релиз по нашим партнерским ссылкам ниже.

[underverse.su].t63993.torrent
Трекер: Зарегистрирован   [ 07.03.2016 12:07 ]  

Статус: проверено (by makkol at 07.03.2016 13:45)
Поблагодарили: 3 человека
Тип торрента: публичный - доступные источники с открытых трекеров: 
Размер: 675 MB (занимает 0,15 DVDR, для записи нужно 1 болванка DVDR/RW)
 
 

Яндекс.Метрика powered by Sphinx


В Н И М А Н И Е
Сайт не распространяет и не хранит электронные версии произведений, а лишь бесплатно и без коммерческой выгоды (не требуя взамен платы,
SMS и т.д.) предоставляет доступ к создаваемому пользователями каталогу ссылок на торрент-файлы, которые содержат только списки хеш-сумм.
Убедительная просьба с жалобами обращаться напрямую к пользователю, разместившему торрент файл.

Вверх