Loading...
Error

Отступники / The Departed (Мартин Скорсезе / Martin Scorsese) [2006 г., триллер, драма, криминал, BDRip] Rus HQ Underverse

Статистика раздачи
Размер:  2,9 GB   |    Зарегистрирован:  8 месяцев   |    Скачан:  12 раз
Сидов:  1  |  0 KB/s  ]   Личеров:  0  |  0 KB/s  ]

* - сиды/пиры с внешних источников

   
 
Автор Сообщение

HQ Underverse 

07-Мар-2016 09:37

Отступники / The Departed


Год выпуска: 2006
Жанр: триллер, драма, криминал
Страна: США , Гонконг
Режиссер: Мартин Скорсезе / Martin Scorsese
В ролях: Леонардо ДиКаприо, Мэтт Дэймон, Джек Николсон, Марк Уолберг, Мартин Шин, Рэй Уинстон, Вера Фармига, Энтони Андерсон, Алек Болдуин, Кевин Корригэн
Сюжет фильма:
Два лучших выпускника полицейской академии оказались по разные стороны баррикады: один из них — агент мафии в рядах правоохранительных органов, другой — «крот», внедрённый в мафию. Каждый считает своим долгом обнаружить и уничтожить противника, но постоянная жизнь в искажённых реалиях меняет внутренний мир героев.

  • Мировая премьера: 26 сентября 2006
  • Российская премьера: 5 октября 2006

/
Качество видео: BDRip

Продолжительность: 02:31:18
Формат: avi
Видео: XviD, 720x304, 2288 kbps
Аудио: русский, дублированный [лицензия], AC3 5.1, 448 kbps

Семпл: http://multi-up.com/1092149

Релиз группы:

Код:

General
Complete name                    : D:\Video\Movies\Releases\Departed.2006.BDRip.XviD.AC3.Rus.D.HQ.Underverse.avi
Format                           : AVI
Format/Info                      : Audio Video Interleave
Format profile                   : OpenDML
File size                        : 2.90 GiB
Duration                         : 2h 31mn
Overall bit rate                 : 2 747 Kbps
Writing application              : VirtualDubMod 1.5.10.3 | www.virtualdub-fr.org || (build 2550/release)
Writing library                  : VirtualDubMod build 2550/release

Video
ID                               : 0
Format                           : MPEG-4 Visual
Format profile                   : Streaming Video@L1
Format settings, BVOP            : Yes
Format settings, QPel            : No
Format settings, GMC             : No warppoints
Format settings, Matrix          : Custom
Codec ID                         : XVID
Codec ID/Hint                    : XviD
Duration                         : 2h 31mn
Bit rate                         : 2 288 Kbps
Width                            : 720 pixels
Height                           : 304 pixels
Display aspect ratio             : 2.35
Frame rate                       : 23.976 fps
Resolution                       : 24 bits
Colorimetry                      : 4:2:0
Scan type                        : Progressive
Bits/(Pixel*Frame)               : 0.436
Stream size                      : 2.42 GiB (83%)
Writing library                  : XviD 67

Audio
ID                               : 1
Format                           : AC-3
Format/Info                      : Audio Coding 3
Codec ID                         : 2000
Duration                         : 2h 31mn
Bit rate mode                    : Constant
Bit rate                         : 448 Kbps
Channel(s)                       : 6 channels
Channel positions                : Front: L C R, Surround: L R, LFE
Sampling rate                    : 48.0 KHz
Stream size                      : 485 MiB (16%)
Alignment                        : Split accross interleaves
Interleave, duration             : 42 ms (1.00 video frame)
Interleave, preload duration     : 500 ms
Title                            : Russian Dub

picpicpic
Для увеличения картинки щелкните мышкой по превью

Этот торрент недоступен для скачивания без регистрации, однако доступен по публичной magnet-ссылке (источники с публичных трекеров). Перед использованием ссылки прочтите, пожалуйста Пользовательское соглашение, а также как можно дольше оставайтесь на раздаче! Для того, чтобы скачать сам торрент-файл (который видит больше источников), а также для того, чтобы поблагодарить релизера, вам необходимо зарегистрироваться. Если регистрироваться лень - вы можете также попробовать скачать релиз по нашим партнерским ссылкам ниже.

[underverse.su].t63986.torrent
Трекер: Зарегистрирован   [ 07.03.2016 09:37 ]  

Статус: проверено (by HQ Underverse at 07.03.2016 09:47)
Поблагодарили: пока никто не поблагодарил...
Тип торрента: публичный - доступные источники с открытых трекеров: 
Размер: 2,9 GB (занимает 2/3 DVDR, для записи нужно 1 болванка DVDR/RW)
 
 
Похожие темы
Форум Тема Автор Торрент Отв. Посл. сооб.
Зарубежное кино [DVDRip, Low-Res HDRip, и т.д.] Отступники / The Departed (Мартин Скорсезе / Martin Scorsese) [2006 г., триллер, драма, криминал, BDRip-AVC] Dub + AVO + Original M-i-i-i-ke
1 | 0

3 | 1379

6

27.02.2014 03:18

Зарубежное кино [DVDRip, Low-Res HDRip, и т.д.] Отступники / The Departed (Мартин Скорсезе / Martin Scorsese) [2006 г., триллер, драма, криминал, BDRip] Dub NMZ
31 | 0

3 | 1180

31

27.02.2014 03:27

Зарубежное кино [DVDRip, Low-Res HDRip, и т.д.] Отступники / The Departed (Мартин Скорсезе / Martin Scorsese.) [2006 г., криминал, триллер, боевик, HDRip] Dub 90ytr90
12 | 0

0 | 367

12

21.02.2016 19:42

Зарубежное кино [DVDRip, Low-Res HDRip, и т.д.] Отступники / The Departed (Мартин Скорсезе / Martin Scorsese.) [2006 г., криминал, триллер, боевик, BDRip-AVC] Dub + AVO (Гаврилов) + Original (Eng) + Sub (Rus, Eng) 90ytr90
59 | 3

0 | 391

10

21.02.2016 20:09

Зарубежное кино [HDDVDRip / BDRip / WEB-DL / HDTV 1080/720р] Отступники / The Departed (Мартин Скорсезе / Martin Scorsese.) [2006 г., криминал, триллер, боевик, BDRip 720p] Dub + Original (Eng) + Sub (Rus, Eng) 90ytr90
153 | 0

0 | 377

5

21.02.2016 20:23

Зарубежное кино [HDDVDRip / BDRip / WEB-DL / HDTV 1080/720р] Отступники / The Departed (Мартин Скорсезе / Martin Scorsese.) [2006 г., криминал, триллер, боевик, BDRip 1080p] Dub + Original (Eng) + Sub (Rus, Eng) 90ytr90
67 | 1

0 | 451

11

21.02.2016 20:32


Яндекс.Метрика powered by Sphinx


В Н И М А Н И Е
Сайт не распространяет и не хранит электронные версии произведений, а лишь бесплатно и без коммерческой выгоды (не требуя взамен платы,
SMS и т.д.) предоставляет доступ к создаваемому пользователями каталогу ссылок на торрент-файлы, которые содержат только списки хеш-сумм.
Убедительная просьба с жалобами обращаться напрямую к пользователю, разместившему торрент файл.

Вверх