Loading...
Error

Тайны, что скрывает океан (3 серии) / Fifth Dimension [2004 г., документальный, морская фауна, IPTVRip] VO

Статистика раздачи
Размер:  875 MB   |    Зарегистрирован:  9 месяцев   |    Скачан:  16 раз

Полного источника не было: 14 дней

Сидов:  0  |  0 KB/s  ]   Личеров:  0  |  0 KB/s  ]

* - сиды/пиры с внешних источников

   
 
Автор Сообщение

ARI71 Пол:Муж

07-Мар-2016 09:32

Тайны, что скрывает океан (3 серии) / Fifth Dimension


Год выпуска: 2004
Жанр: документальный, морская фауна
Страна: Канада
Режиссер: Джон Джексон
Сюжет фильма:
Этот увлекательный сериал познакомит вас с новейшими открытиями ученых, изучающих подводный мир. В этой программе собраны самые удивительные примеры образа жизни морских обитателей. Вам предстоит пережить трепет от встреч лицом к лицу с обитателями глубин и вместе с исследователями, которым не чужды приключения, приблизиться к тайнам, что скрывает океан.
Качество видео: IPTVRip

Продолжительность: 3 х ~ 00:26:00
Формат: AVI
Видео: 640x480 (1.33:1), 25 fps, XviD build 50 ~1712 kbps avg, 0.22 bit/pixel
Аудио: русский, одноголосый [профессиональный], 48 kHz, MPEG Layer 3, 2 ch, ~128.00 kbps avg
(тех. данные серий идентичны)
Серия № 1. ГИГАНТСКИЙ ОСЬМИНОГ: ТАИНСТВЕННЫЙ ОБИТАТЕЛЬ СЕВЕРНОЙ ЧАСТИ ТИХОГО ОКЕАНА.
Самый высокоразвитый представитель беспозвоночных животных – гигантский тихоокеанский осьминог. Осьминог предпочитает уединение. Он видит не хуже людей и имеет три мозга, что позволяет быстро анализировать увиденное. Если осьминог напуган, его кожа приобретает неровный рельеф, напоминающий дно с камнями и растениями. Это далеко не все секреты осьминога.

Серия № 2. ОКЕАН ГЛАЗАМИ РЫБ.
Под водой люди воспринимают окружающий мир глазами и ушами. Но в этом мире тишины животные анализируют внешний мир совсем иначе – с помощью света, очертаний и цвета. Чтобы понять их восприятие, мы должны познать правила игры.

Серия № 3. РАЙ ДЛЯ ЛАМАНТИНОВ.
Ламантин, относящийся к отряду сирен, позаимствовал своё название из греческой мифологии. Сладкие чарующие звуки ламантинов напоминают песни этих полурыб-полуженщин. Мы находимся в национальном заповеднике дикой природы на Кристальной реке, что на западном побережье Флориды. В этой тёплой артезианской воде живёт более четырёх сотен ламантинов.
File: Гигантский Осьминог.avi
Video: 640x480 (1.33:1), 25 fps, XviD build 63 ~769 kbps avg, 0.10 bit/pixel
Audio: 48 kHz, MPEG Layer 3, 2 ch, ~128.00 kbps avg

Код:

Общее
Полное имя : D:\Fifth Dimension\Рай для ламонтинов.avi
Формат : AVI
Формат/Информация : Audio Video Interleave
Размер файла : 350 Мбайт
Продолжительность : 26 м.
Общий поток : 1848 Кбит/сек
Программа кодирования : VirtualDubMod 1.5.4.1 (build 2178/release)
Библиотека кодирования : VirtualDubMod build 2178/release

Видео
Идентификатор : 0
Формат : MPEG-4 Visual
Профиль формата : Advanced Simple@L5
Параметр BVOP формата : 1
Параметр QPel формата : Нет
Параметр GMC формата : Без точки перехода
Параметр матрицы формата : Выборочная
Идентификатор кодека : XVID
Идентификатор кодека/Подсказка : XviD
Продолжительность : 26 м.
Битрейт : 1712 Кбит/сек
Ширина : 640 пикселей
Высота : 480 пикселей
Соотношение сторон : 4:3
Частота кадров : 25,000 кадров/сек
Цветовое пространство : YUV
Субдискретизация насыщенности : 4:2:0
Битовая глубина : 8 бит
Тип развёртки : Прогрессивная
Метод сжатия : С потерями
Бит/(Пиксели*Кадры) : 0.223
Размер потока : 324 Мбайт (93%)
Библиотека кодирования : XviD 1.2.1 (UTC 2008-12-04)

Аудио
Идентификатор : 1
Формат : MPEG Audio
Версия формата : Version 1
Профиль формата : Layer 3
Режим : Joint stereo
Расширение режима : MS Stereo
Идентификатор кодека : 55
Идентификатор кодека/Подсказка : MP3
Продолжительность : 26 м.
Вид битрейта : Постоянный
Битрейт : 128 Кбит/сек
Каналы : 2 канала
Частота : 48,0 КГц
Метод сжатия : С потерями
Размер потока : 24,3 Мбайт (7%)
Выравнивание : Соединение по промежуткам
Продолжительность промежутка : 80 мс. (2,00 видеокадра)
Время предзагрузки промежутка : 504 мс.
Библиотека кодирования : LAME3.98r
Настройки программы : -m j -V 4 -q 2 -lowpass 17 -b 128
picpicpicpicpic
Для увеличения картинки щелкните мышкой по превью

Этот торрент недоступен для скачивания без регистрации, однако доступен по публичной magnet-ссылке (источники с публичных трекеров). Перед использованием ссылки прочтите, пожалуйста Пользовательское соглашение, а также как можно дольше оставайтесь на раздаче! Для того, чтобы скачать сам торрент-файл (который видит больше источников), а также для того, чтобы поблагодарить релизера, вам необходимо зарегистрироваться. Если регистрироваться лень - вы можете также попробовать скачать релиз по нашим партнерским ссылкам ниже.

[underverse.su].t63985.torrent
Трекер: Зарегистрирован   [ 07.03.2016 09:32 ]  

Статус: проверено (by makkol at 07.03.2016 11:45)
Поблагодарили: 4 человека
Тип торрента: публичный - доступные источники с открытых трекеров: 
Размер: 875 MB (занимает 0,2 DVDR, для записи нужно 1 болванка DVDR/RW)
 
 

ARI71 Пол:Муж

09-Мар-2016 18:36

Спасибо всем, кто остаётся на раздаче этого релиза! Я с раздачи схожу.

Яндекс.Метрика powered by Sphinx


В Н И М А Н И Е
Сайт не распространяет и не хранит электронные версии произведений, а лишь бесплатно и без коммерческой выгоды (не требуя взамен платы,
SMS и т.д.) предоставляет доступ к создаваемому пользователями каталогу ссылок на торрент-файлы, которые содержат только списки хеш-сумм.
Убедительная просьба с жалобами обращаться напрямую к пользователю, разместившему торрент файл.

Вверх