Loading...
Error

Взорвать Гитлера / Elser (Оливер Хиршбигель) [2015 г., Драма, HDRip] MVO

 
Автор Сообщение

IlyaSaint Пол:Муж

06-Мар-2016 16:35

Взорвать Гитлера / Elser


Год выпуска: 2015
Жанр: Драма
Страна: Германия
Режиссер: Оливер Хиршбигель
В ролях: Кристиан Фридель, Катарина Шюттлер, Бургхарт Клаусснер, Йохан фон Бюлов, Феликс Эйтнер, Давид Зиммершмид, Рюдигер Клинк, Симон Лихт, Корнелия Конгден, Мартин Мария Абрам
Сюжет фильма:
Всего 13 минут не хватило плотнику Георгу Эльзеру, чтобы изменить ход мировой истории. 8 ноября 1939 года в мюнхенской пивной «Бюргербройкеллер», где Гитлер каждый год в годовщину «Пивного путча» выступал перед ветеранами Национал-социалистической рабочей партии Германии Эльзер вмонтировал самодельное взрывное устройство с часовым механизмом в колонну, перед которой обычно устанавливали трибуну для вождя

  • Мировая премьера: 12 февраля 2015
  • Российская премьера: 21 апреля 2016


Качество видео: HDRip

Продолжительность: 01:54:12
Формат: AVI
Видео: XviD, 720x304, 1375 kbps
Аудио: русский, многоголосый закадровый [профессиональный], 448 kbps

picpicpic
Для увеличения картинки щелкните мышкой по превью
Download Для того, чтобы скачать этот торрент, необходимо залогиниться! Если у Вас нет логина на нашем трекере - зарегистрируйтесь, и он у Вас будет.

Как качать с торрент трекера  ·   Что такое torrent (торрент)  ·   Рейтинг и ограничения

 
Похожие темы
Форум Тема Автор Торрент Отв. Посл. сооб.
T Зарубежное кино [DVDRip, Low-Res HDRip, и т.д.] Взорвать Гитлера / Elser (Оливер Хиршбигель / Oliver Hirschbiegel) [2015 г., драма, HDRip] Dub (iTunes) 90ytr90
26 | 0

0 | 292

1

15.11.2016 18:31

T Зарубежное кино [DVDRip, Low-Res HDRip, и т.д.] Взорвать Гитлера / Elser (Оливер Хиршбигель / Oliver Hirschbiegel) [2015 г., драма, BDRip-AVC] Dub (iTunes) + Original (Ger) + Sub (Eng, Ger) 90ytr90
28 | 3

0 | 280

2

15.11.2016 18:28

T Зарубежное кино [DVDRip, Low-Res HDRip, и т.д.] Взорвать Гитлера / Elser (Оливер Хиршбигель / Oliver Hirschbiegel) [2015 г., драма, HDRip] Dub (iTunes) 90ytr90
71 | 7

0 | 259

2

15.11.2016 18:14

% Зарубежное кино [DVDRip, Low-Res HDRip, и т.д.] Взорвать Гитлера / Elser (Оливер Хиршбигель / Oliver Hirschbiegel) [2015 г., драма, НDRip] Dub (чистый звук) 90ytr90
21 | 0

0 | 481

9

20.05.2016 12:47

T Зарубежное кино [HDDVDRip / BDRip / WEB-DL / HDTV 1080/720р] Взорвать Гитлера / Elser (Оливер Хиршбигель / Oliver Hirschbiegel) [2015 г., драма, BDRip 1080p] Dub (iTunes) + MVO (Paradox & Omskbird records) + Original (Ger) + Sub (Eng, Ger) 90ytr90
17 | 0

0 | 266

0

15.11.2016 18:22

T Зарубежное кино [HDDVDRip / BDRip / WEB-DL / HDTV 1080/720р] Взорвать Гитлера / Elser (Оливер Хиршбигель / Oliver Hirschbiegel) [2015 г., драма, BDRip 720p] Dub (iTunes) + MVO (Paradox & Omskbird records) + Original (Ger) + Sub (Eng, Ger) 90ytr90
21 | 0

0 | 260

1

15.11.2016 18:19

# Зарубежное кино [HDDVDRip / BDRip / WEB-DL / HDTV 1080/720р] Взорвать Гитлера / Elser (Оливер Хиршбигель / Oliver Hirschbiegel) [2015 г., драма, BDRip 720p] MVO (Paradox & Omskbird records) + Original (Ger) 90ytr90
59 | 0

0 | 353

14

06.03.2016 12:04

% Зарубежное кино [HDDVDRip / BDRip / WEB-DL / HDTV 1080/720р] Взорвать Гитлера / Elser (Оливер Хиршбигель / Oliver Hirschbiegel) [2015 г., драма, BDRip 1080p] Dub (чистый звук) + Original (Ger) 90ytr90
14 | 0

0 | 495

5

20.05.2016 14:35

90ytr90 

07-Мар-2016 17:07

Цитата:

приватный - доступны источники только с нашего трекера

Аудио: русский, многоголосый закадровый [профессиональный], 448 kbps
Зачем "приватный"? Кол-во каналов в аудио?

IlyaSaint Пол:Муж

13-Мар-2016 22:38

90ytr90 писал(а):

Цитата:

приватный - доступны источники только с нашего трекера

Аудио: русский, многоголосый закадровый [профессиональный], 448 kbps
Зачем "приватный"? Кол-во каналов в аудио?
я не смог нигде настроить не приватность...

90ytr90 

20-Май-2016 13:00

Вот МИ Вашего файла:

General
Complete name : C:\uTorrent\GitLer.2O15.P.HDRip.1.46GB.avi
Format : AVI
Format/Info : Audio Video Interleave
File size : 1.46 GiB
Duration : 1h 54mn
Overall bit rate : 1 832 Kbps
Writing application : VirtualDubMod 1.5.10.2 (build 2540/release)
Writing library : VirtualDubMod build 2540/release

Video
ID : 0
Format : MPEG-4 Visual
Format profile : Advanced Simple@L5
Format settings, BVOP : Yes
Format settings, QPel : No
Format settings, GMC : No warppoints
Format settings, Matrix : Default (MPEG)
Codec ID : XVID
Codec ID/Hint : XviD
Duration : 1h 54mn
Bit rate : 1 375 Kbps
Width : 720 pixels
Height : 304 pixels
Display aspect ratio : 2.35:1
Frame rate : 24.000 fps
Resolution : 8 bits
Colorimetry : 4:2:0
Scan type : Progressive
Bits/(Pixel*Frame) : 0.262
Stream size : 1.10 GiB (75%)
Writing library : XviD 1.2.1 (UTC 2008-12-04)

Audio
ID : 1
Format : AC-3
Format/Info : Audio Coding 3
Codec ID : 2000
Duration : 1h 54mn
Bit rate mode : Constant
Bit rate : 448 Kbps
Channel(s) : 6 channels
Channel positions : Front: L C R, Surround: L R, LFE
Sampling rate : 48.0 KHz
Stream size : 366 MiB (24%)
Alignment : Split accross interleaves
Interleave, duration : 42 ms (1.00 video frame)
Interleave, preload duration : 500 ms
Видео: XviD, 720x304 (2.35:1), 1375 kbps, 24 fps, 0.262 bit/pixel
Аудио: AC3, 448 kbps, 6 ch, 48 kHz

Перевод: любительский (многоголосый закадровый) [Paradox & Omskbird records]

В данном случае "приватность" не мешает закачивать - Раздача мультитрекерная.

Исправляйте, пожалуйста, тех. данные аудио.

Яндекс.Метрика powered by Sphinx


В Н И М А Н И Е
Сайт не распространяет и не хранит электронные версии произведений, а лишь бесплатно и без коммерческой выгоды (не требуя взамен платы,
SMS и т.д.) предоставляет доступ к создаваемому пользователями каталогу ссылок на торрент-файлы, которые содержат только списки хеш-сумм.
Убедительная просьба с жалобами обращаться напрямую к пользователю, разместившему торрент файл.

Вверх