Loading...
Error

Чудеса океана / Ocean Wonderland [2003 г., документальный, природа, морская фауна, BDRip-AVC] Dub

Статистика раздачи
Размер:  743 MB   |    Зарегистрирован:  9 месяцев   |    Скачан:  10 раз

Полного источника не было: 21 день

Сидов:  0  |  0 KB/s  ]   Личеров:  0  |  0 KB/s  ]

* - сиды/пиры с внешних источников

   
 
Автор Сообщение

ARI71 Пол:Муж

06-Мар-2016 13:54

Чудеса океана / Ocean Wonderland


Год выпуска: 2003
Жанр: документальный, природа, морская фауна
Страна: Франция
Режиссер: Жан-Жак Мантелло
Сюжет фильма:
Чудеса океана — первый трехмерный подводный широкоформатный фильм, целиком снятый с использованием цифровых технологий. Благодаря этим технологиям, большая часть кадров картины демонстрирует подводный мир в естественном освещении. Основная тема фильма, снятого на Большом Барьерном рифе и Багамах, — невероятное разнообразие морской жизни на коралловых рифах и поражающая воображение красота бесчисленных вариаций самих кораллов. Основная миссия — подчеркнуть важную роль коралловых колоний в поддержании экологического равновесия на нашей планете, и предупредить людей об опасности, что грозит с их уничтожением...


Качество видео: BDRip-AVC

Продолжительность: 00:40:39
Формат: MKV
Видео: 1024x576 (16:9), 23,976 fps, AVC (x264), ~2328 kbps avg, 0.165 bit/pixel
Аудио: русский, дублированный, 48 kHz, AC3 Dolby Digital, 6 ch, ~224 kbps

Код:

Общее
Уникальный идентификатор : 174453586278528905920979496943671731160 (0x833E89DFDA0A01098D468171ED2263D8)
Полное имя : D:\Ocean.Wonderland.2003.BDRip-AVC.by RockeT.mkv
Формат : Matroska
Версия формата : Version 2
Размер файла : 743 Мбайт
Продолжительность : 40 м.
Общий поток : 2553 Кбит/сек
Дата кодирования : UTC 2015-01-16 22:30:35
Программа кодирования : mkvmerge v5.8.0 ('No Sleep / Pillow') built on Sep 2 2012 15:37:04
Библиотека кодирования : libebml v1.2.3 + libmatroska v1.3.0

Видео
Идентификатор : 1
Формат : AVC
Формат/Информация : Advanced Video Codec
Профиль формата : High@L3.2
Параметр CABAC формата : Да
Параметр ReFrames формата : 8 кадров
Идентификатор кодека : V_MPEG4/ISO/AVC
Продолжительность : 40 м.
Битрейт : 2328 Кбит/сек
Ширина : 1024 пикселя
Высота : 576 пикселей
Соотношение сторон : 16:9
Режим частоты кадров : Постоянный
Частота кадров : 23,976 кадра/сек
Цветовое пространство : YUV
Субдискретизация насыщенности : 4:2:0
Битовая глубина : 8 бит
Тип развёртки : Прогрессивная
Бит/(Пиксели*Кадры) : 0.165
Размер потока : 663 Мбайт (89%)
Библиотека кодирования : x264 core 125 r2208 d9d2288
Настройки программы : cabac=1 / ref=8 / deblock=1:-1:-1 / analyse=0x3:0x133 / me=umh / subme=9 / psy=1 / psy_rd=1.00:0.10 / mixed_ref=1 / me_range=16 / chroma_me=1 / trellis=2 / 8x8dct=1 / cqm=0 / deadzone=21,11 / fast_pskip=0 / chroma_qp_offset=-3 / threads=6 / lookahead_threads=1 / sliced_threads=0 / nr=0 / decimate=1 / interlaced=0 / bluray_compat=0 / constrained_intra=0 / bframes=3 / b_pyramid=2 / b_adapt=2 / b_bias=0 / direct=3 / weightb=1 / open_gop=0 / weightp=2 / keyint=250 / keyint_min=23 / scenecut=40 / intra_refresh=0 / rc_lookahead=50 / rc=2pass / mbtree=1 / bitrate=2328 / ratetol=1.0 / qcomp=0.60 / qpmin=0 / qpmax=69 / qpstep=4 / cplxblur=20.0 / qblur=0.5 / ip_ratio=1.40 / aq=1:1.00
Default : Да
Forced : Нет

Аудио
Идентификатор : 2
Формат : AC-3
Формат/Информация : Audio Coding 3
Расширение режима : CM (complete main)
Параметр Endianness формата : Big
Идентификатор кодека : A_AC3
Продолжительность : 40 м.
Вид битрейта : Постоянный
Битрейт : 224 Кбит/сек
Каналы : 6 каналов
Расположение каналов : Front: L C R, Side: L R, LFE
Частота : 48,0 КГц
Метод сжатия : С потерями
Размер потока : 65,1 Мбайт (9%)
Default : Да
Forced : Нет
picpicpicpicpicpic
Для увеличения картинки щелкните мышкой по превью

Этот торрент недоступен для скачивания без регистрации, однако доступен по публичной magnet-ссылке (источники с публичных трекеров). Перед использованием ссылки прочтите, пожалуйста Пользовательское соглашение, а также как можно дольше оставайтесь на раздаче! Для того, чтобы скачать сам торрент-файл (который видит больше источников), а также для того, чтобы поблагодарить релизера, вам необходимо зарегистрироваться. Если регистрироваться лень - вы можете также попробовать скачать релиз по нашим партнерским ссылкам ниже.

[underverse.su].t63962.torrent
Трекер: Зарегистрирован   [ 06.03.2016 13:54 ]  

Статус: проверено (by makkol at 06.03.2016 15:09)
Поблагодарили: 3 человека
Тип торрента: публичный - доступные источники с открытых трекеров: 
Размер: 743 MB (занимает 0,17 DVDR, для записи нужно 1 болванка DVDR/RW)
 
 

ARI71 Пол:Муж

06-Мар-2016 14:40


Яндекс.Метрика powered by Sphinx


В Н И М А Н И Е
Сайт не распространяет и не хранит электронные версии произведений, а лишь бесплатно и без коммерческой выгоды (не требуя взамен платы,
SMS и т.д.) предоставляет доступ к создаваемому пользователями каталогу ссылок на торрент-файлы, которые содержат только списки хеш-сумм.
Убедительная просьба с жалобами обращаться напрямую к пользователю, разместившему торрент файл.

Вверх