Loading...
Error

Франкенштейн / Frankenstein (Бернард Роуз) [2015 г., ужасы, триллер, HDRip] VO

Статистика раздачи
Размер:  1,36 GB   |    Зарегистрирован:  9 месяцев   |    Скачан:  18 раз

Полного источника не было: 1 час 6 минут

Сидов:  0  |  0 KB/s  ]   Личеров:  0  |  0 KB/s  ]

* - сиды/пиры с внешних источников

   
 
Автор Сообщение

makkol Пол:Муж

06-Мар-2016 13:04

Франкенштейн / Frankenstein


Год выпуска: 2015
Жанр: ужасы, триллер
Производство: США , Германия [Bad Badger, Eclectic Pictures, Summerstorm Entertainment]
Режиссер: Бернард Роуз
В ролях: Кэрри-Энн Мосс, Завьер Сэмюэл, Тони Тодд, Дэнни Хьюстон, МакКенна Грейс, Майя Эрскин, Кэрол Энн Уоттс, Джеймс Лью, Адам Нагаитис, Мэри Галлахер
Сюжет фильма:
Действие фильма разворачивается в современном Лос-Анджелесе, а повествование в ней ведется от лица монстра Адама, созданного и брошенного супругами Виктором и Элизабет Франкенштейнами, занимающимися научными экспериментами.

  • Мировая премьера: 12 апреля 2015


Качество видео: HDRip

Продолжительность: 01:29:25
Формат: AVI
Видео: XviD, 720x400 (16:9), 23.976 fps, 1977 kbps
Аудио: русский, любительский одноголосый закадровый, AC3 2.0, 48 kHz, 192 kbps

Код:

Format : AVI
Format/Info : Audio Video Interleave
File size : 1.36 GiB
Duration : 1h 29mn
Overall bit rate : 2 179 Kbps
Writing application : VirtualDubMod 1.5.10.2 (build 2540/release)
Writing library : VirtualDubMod build 2540/release

Video
ID : 0
Format : MPEG-4 Visual
Format profile : Advanced Simple@L5
Format settings, BVOP : 1
Format settings, QPel : No
Format settings, GMC : No warppoints
Format settings, Matrix : Default (MPEG)
Codec ID : XVID
Codec ID/Hint : XviD
Duration : 1h 29mn
Bit rate : 1 977 Kbps
Width : 720 pixels
Height : 400 pixels
Display aspect ratio : 16:9
Frame rate : 23.976 fps
Color space : YUV
Chroma subsampling : 4:2:0
Bit depth : 8 bits
Scan type : Progressive
Compression mode : Lossy
Bits/(Pixel*Frame) : 0.286
Stream size : 1.24 GiB (91%)
Writing library : XviD 1.2.1 (UTC 2008-12-04)

Audio
ID : 1
Format : AC-3
Format/Info : Audio Coding 3
Mode extension : CM (complete main)
Format settings, Endianness : Big
Codec ID : 2000
Duration : 1h 29mn
Bit rate mode : Constant
Bit rate : 192 Kbps
Channel(s) : 2 channels
Channel positions : Front: L R
Sampling rate : 48.0 KHz
Compression mode : Lossy
Stream size : 123 MiB (9%)
Alignment : Split accross interleaves
Interleave, duration : 42 ms (1.00 video frame)
Interleave, preload duratio : 500 ms
Перевод: Enigma
Озвучивание: Васька Куролесов
Релиз от:
picpicpicpicpic
Для увеличения картинки щелкните мышкой по превью

Этот торрент недоступен для скачивания без регистрации, однако доступен по публичной magnet-ссылке (источники с публичных трекеров). Перед использованием ссылки прочтите, пожалуйста Пользовательское соглашение, а также как можно дольше оставайтесь на раздаче! Для того, чтобы скачать сам торрент-файл (который видит больше источников), а также для того, чтобы поблагодарить релизера, вам необходимо зарегистрироваться. Если регистрироваться лень - вы можете также попробовать скачать релиз по нашим партнерским ссылкам ниже.

[underverse.su].t63961.torrent
Трекер: Зарегистрирован   [ 06.03.2016 13:04 ]  

Статус: проверено (by makkol at 07.03.2016 23:51)
Поблагодарили: пока никто не поблагодарил...
Тип торрента: публичный - доступные источники с открытых трекеров: 
Размер: 1,36 GB (занимает 0,31 DVDR, для записи нужно 1 болванка DVDR/RW)
 
 
Похожие темы
Форум Тема Автор Торрент Отв. Посл. сооб.
Зарубежное кино [DVDRip, Low-Res HDRip, и т.д.] Франкенштейн / Франкенштейн Мэри Шелли / Frankenstein (Кеннет Брэна / Kenneth Branagh) [1994 г., ужасы, фантастика, драма, мелодрама, BDRip] Dub + MVO 90ytr90
12 | 0

1 | 891

6

13.01.2014 09:42

Зарубежное кино [DVDRip, Low-Res HDRip, и т.д.] Франкенштейн против мумии / Frankenstein vs. The Mummy (Дэмиен Леоне / Damien Leone) [2015 г., ужасы, DVDRip] DVO (Sunny-Films) 90ytr90
5 | 0

1 | 1597

9

19.03.2015 18:32

Зарубежное кино [DVDRip, Low-Res HDRip, и т.д.] Франкенштейн против мумии / Frankenstein vs. The Mummy (Дэмиен Леоне / Damien Leone) [2015 г., ужасы, DVDRip] DVO (Sunny-Films) + Original (Eng) 90ytr90
1 | 0

0 | 1571

14

25.02.2015 20:47

Релизы Франкенштейн: Повелитель смерти / Frankenstein: Master of Death [2015 г., Quest, Hidden Object] RUS [P] Flatron
0 | 0

1 | 653

1

19.02.2015 14:11


Яндекс.Метрика powered by Sphinx


В Н И М А Н И Е
Сайт не распространяет и не хранит электронные версии произведений, а лишь бесплатно и без коммерческой выгоды (не требуя взамен платы,
SMS и т.д.) предоставляет доступ к создаваемому пользователями каталогу ссылок на торрент-файлы, которые содержат только списки хеш-сумм.
Убедительная просьба с жалобами обращаться напрямую к пользователю, разместившему торрент файл.

Вверх