Loading...
Error

Царская Россия - Юнкера. Последние рыцари империи [2008 г., документальный, история, хроника, DVDRip]

Статистика раздачи
Размер:  700 MB   |    Зарегистрирован:  9 месяцев   |    Скачан:  15 раз

Полного источника не было: 20 дней

Сидов:  0  |  0 KB/s  ]   Личеров:  0  |  0 KB/s  ]

* - сиды/пиры с внешних источников

   
 
Автор Сообщение

ARI71 Пол:Муж

06-Мар-2016 11:27

Царская Россия - Юнкера. Последние рыцари империи


Год выпуска: 2008
Жанр: документальный, история, хроника
Страна: Россия, ВГТРК
Режиссер: Алексей Денисов
Сюжет фильма:
Документальный фильм из цикла "Царская Россия", который рассказывает о создании и истории юнкерских училищ в России, участии юнкеров в борьбе с большевизмом, показаны современные кадетские корпуса, в т.ч. и казачьи. "Жизнь Родине, честь - никому", - так звучала одна из заповедей кодекса чести кадетских корпусов и юнкерских училищ. Эти учреждения до революции 1917 года воспитывали офицерские кадры Российской Имперской армии. Вся система образования была направлена на формирование повышенного чувства долга , чести и собственного достоинства, верности присяге, преданности Государю и Отечеству, бесстрашие и жертвенность. Юнкера и кадеты первыми оказали решительное и бесстрашное сопротивление победившей советской власти. И стали самыми первыми её жертвами. Им было по 18-19 лет.... "Кто такие юнкера и почему они выступили против коммунистического режима?"- современная история долго замалчивала этот вопрос. Пришло время на него ответить...
Качество видео: DVDRip

Продолжительность: 00:44:00
Формат: AVI
Видео: 720x544 (1.32:1), 25 fps, XviD build 50 ~2025 kbps avg, 0.21 bit/pixel
Аудио: русский, оригинал, 48 kHz, AC3 Dolby Digital, 2/0 (L,R) ch, ~192.00 kbps avg

Код:

Общее
Полное имя : D:\Junkera.avi
Формат : AVI
Формат/Информация : Audio Video Interleave
Размер файла : 700 Мбайт
Продолжительность : 44 м.
Общий поток : 2224 Кбит/сек
Программа кодирования : VirtualDubMod 1.5.4.1 (build 2178/release)
Библиотека кодирования : VirtualDubMod build 2178/release

Видео
Идентификатор : 0
Формат : MPEG-4 Visual
Профиль формата : Advanced Simple@L5
Параметр BVOP формата : 1
Параметр QPel формата : Нет
Параметр GMC формата : Без точки перехода
Параметр матрицы формата : Выборочная
Идентификатор кодека : XVID
Идентификатор кодека/Подсказка : XviD
Продолжительность : 44 м.
Битрейт : 2025 Кбит/сек
Ширина : 720 пикселей
Высота : 544 пикселя
Соотношение сторон : 4:3
Частота кадров : 25,000 кадров/сек
Цветовое пространство : YUV
Субдискретизация насыщенности : 4:2:0
Битовая глубина : 8 бит
Тип развёртки : Прогрессивная
Метод сжатия : С потерями
Бит/(Пиксели*Кадры) : 0.207
Размер потока : 638 Мбайт (91%)
Библиотека кодирования : XviD 1.2.1 (UTC 2008-12-04)

Аудио
Идентификатор : 1
Формат : AC-3
Формат/Информация : Audio Coding 3
Расширение режима : CM (complete main)
Параметр Endianness формата : Big
Идентификатор кодека : 2000
Продолжительность : 44 м.
Вид битрейта : Постоянный
Битрейт : 192 Кбит/сек
Каналы : 2 канала
Расположение каналов : Front: L R
Частота : 48,0 КГц
Метод сжатия : С потерями
Размер потока : 60,4 Мбайт (9%)
Выравнивание : Разделение по промежуткам
Продолжительность промежутка : 96 мс. (2,40 видеокадра)
Время предзагрузки промежутка : 96 мс.










Этот торрент недоступен для скачивания без регистрации, однако доступен по публичной magnet-ссылке (источники с публичных трекеров). Перед использованием ссылки прочтите, пожалуйста Пользовательское соглашение, а также как можно дольше оставайтесь на раздаче! Для того, чтобы скачать сам торрент-файл (который видит больше источников), а также для того, чтобы поблагодарить релизера, вам необходимо зарегистрироваться. Если регистрироваться лень - вы можете также попробовать скачать релиз по нашим партнерским ссылкам ниже.

[underverse.su].t63951.torrent
Трекер: Зарегистрирован   [ 06.03.2016 11:27 ]  

Статус: проверено (by makkol at 06.03.2016 11:47)
Поблагодарили: пока никто не поблагодарил...
Тип торрента: публичный - доступные источники с открытых трекеров: 
Размер: 700 MB (занимает 0,16 DVDR, для записи нужно 1 болванка DVDR/RW)
 
 

astra265 Пол:Жен

09-Мар-2016 09:27

спасибо, внук любит такие вещи :)

Яндекс.Метрика powered by Sphinx


В Н И М А Н И Е
Сайт не распространяет и не хранит электронные версии произведений, а лишь бесплатно и без коммерческой выгоды (не требуя взамен платы,
SMS и т.д.) предоставляет доступ к создаваемому пользователями каталогу ссылок на торрент-файлы, которые содержат только списки хеш-сумм.
Убедительная просьба с жалобами обращаться напрямую к пользователю, разместившему торрент файл.

Вверх