Loading...
Error

Охота на трюфели (1-5 серии из 5) / Unearthed [2015 г., документальный, приключения, HDTVRip] DVO

Статистика раздачи
Размер:  2,67 GB   |    Зарегистрирован:  8 месяцев   |    Скачан:  10 раз

Полного источника не было: 10 дней

Сидов:  0  |  0 KB/s  ]   Личеров:  0  |  0 KB/s  ]

* - сиды/пиры с внешних источников

   
 
Автор Сообщение

ARI71 Пол:Муж

05-Мар-2016 12:56

Охота на трюфели (1-5 серии из 5) / Unearthed


Год выпуска: 2015
Жанр: документальный, приключения
Страна: США, Discovery Communications LLC
Режиссер: Discovery
Сюжет фильма:
В древнем лесу, окружающем маленький городок Фоллс-Сити, зарыто настоящее сокровище, но лишь пара человек знает секрет, как его найти. В новой передаче "Охота на трюфели" вы увидите, как 10 недель в году эти избранные отправляются за одним из самых дорогих деликатесов, который римский император Нерон назвал "пищей богов" - чёрными трюфелями. Для жителей Орегона они дороже золота, поэтому местные копатели стерегут их как зеницу ока.
Качество видео: HDTVRip

Продолжительность: 5 x ~ 00:44:00
Формат: AVI
Видео: XviD, 720x400, ~1539 kbps
Аудио: русский, двухголосый [профессиональный], AC3 2.0, ~192.00 kbps
(тех. данные всех серий идентичны)
Внимание! Раздача ведётся путём добавления новых серий; при каждом добавлении создаётся новый торрент. Чтобы начать докачку новой серии, пользователям необходимо сделать следующее: (1) остановить скачивание, (2) удалить старый торрент у себя из клиента (старые серии удалять не надо), (3) скачать новый торрент и запустить его у себя в клиенте вместо старого, при этом указать клиенту путь в старую папку куда и должно происходить скачивание новых серий.

Ваш клиент при этом должен произвести хеширование (проверку) старой папки (если не производит сам - помогите ему сделать это), и будет докачивать только те серии которых у вас ещё нет. Старые серии при этом не удаляются, а продолжают раздаваться!

Eсли вы уже удалили старые серии, то предотвратить повторную закачку старых серий можно, отжав галочку в соответсвующих местах при запуске нового торрента.
01. Дьявольские корни.
02. Чёрные алмазы.
03. Замёрзшая пустошь.
04. Долина смерти.
05. На краю.

Код:

Общее
Полное имя : D:\Охота на трюфели HitWay\01 Охота на трюфели HitWay.avi
Формат : AVI
Формат/Информация : Audio Video Interleave
Размер файла : 543 Мбайт
Продолжительность : 43 м.
Общий поток : 1743 Кбит/сек
Программа кодирования : VirtualDubMod 1.5.10.3 | www.virtualdub-fr.org || (build 2550/release)
Библиотека кодирования : VirtualDubMod build 2550/release

Видео
Идентификатор : 0
Формат : MPEG-4 Visual
Профиль формата : Advanced Simple@L5
Параметр BVOP формата : 1
Параметр QPel формата : Нет
Параметр GMC формата : Без точки перехода
Параметр матрицы формата : Выборочная
Идентификатор кодека : XVID
Идентификатор кодека/Подсказка : XviD
Продолжительность : 43 м.
Битрейт : 1539 Кбит/сек
Ширина : 720 пикселей
Высота : 400 пикселей
Соотношение сторон : 16:9
Частота кадров : 30,000 кадров/сек
Цветовое пространство : YUV
Субдискретизация насыщенности : 4:2:0
Битовая глубина : 8 бит
Тип развёртки : Прогрессивная
Метод сжатия : С потерями
Бит/(Пиксели*Кадры) : 0.178
Размер потока : 480 Мбайт (88%)
Библиотека кодирования : XviD 73

Аудио
Идентификатор : 1
Формат : AC-3
Формат/Информация : Audio Coding 3
Расширение режима : CM (complete main)
Параметр Endianness формата : Big
Идентификатор кодека : 2000
Продолжительность : 43 м.
Вид битрейта : Постоянный
Битрейт : 192 Кбит/сек
Каналы : 2 канала
Расположение каналов : Front: L R
Частота : 48,0 КГц
Метод сжатия : С потерями
Размер потока : 59,8 Мбайт (11%)
Выравнивание : Разделение по промежуткам
Продолжительность промежутка : 33 мс. (1,00 видеокадр)
Время предзагрузки промежутка : 500 мс.
picpicpicpic
Для увеличения картинки щелкните мышкой по превью

Этот торрент недоступен для скачивания без регистрации, однако доступен по публичной magnet-ссылке (источники с публичных трекеров). Перед использованием ссылки прочтите, пожалуйста Пользовательское соглашение, а также как можно дольше оставайтесь на раздаче! Для того, чтобы скачать сам торрент-файл (который видит больше источников), а также для того, чтобы поблагодарить релизера, вам необходимо зарегистрироваться. Если регистрироваться лень - вы можете также попробовать скачать релиз по нашим партнерским ссылкам ниже.

[underverse.su].t64181.torrent
Трекер: Зарегистрирован   [ 12.03.2016 18:17 ]  

Статус: проверено (by makkol at 13.03.2016 22:20)
Поблагодарили: 1 человек
Тип торрента: публичный - доступные источники с открытых трекеров: 
Размер: 2,67 GB (занимает 0,61 DVDR, для записи нужно 1 болванка DVDR/RW)
 
 


Последний раз редактировалось: ARI71 (12.03.2016 18:16), всего редактировалось 2 раз(а)

ARI71 Пол:Муж

05-Мар-2016 13:11

Приятного просмотра! Добавлена 5-я серия. Обновите пож-та торрент-файл.

Яндекс.Метрика powered by Sphinx


В Н И М А Н И Е
Сайт не распространяет и не хранит электронные версии произведений, а лишь бесплатно и без коммерческой выгоды (не требуя взамен платы,
SMS и т.д.) предоставляет доступ к создаваемому пользователями каталогу ссылок на торрент-файлы, которые содержат только списки хеш-сумм.
Убедительная просьба с жалобами обращаться напрямую к пользователю, разместившему торрент файл.

Вверх