Loading...
Error

В десяти минутах от нудистов / A dix minutes des naturistes (Стефан Клавье) [2012 г., комедия, HDTVRip] AVO + Original

Статистика раздачи
Размер:  1,45 GB   |    Зарегистрирован:  9 месяцев   |    Скачан:  53 раза

Полного источника не было: 12 часов

Сидов:  0  |  0 KB/s  ]   Личеров:  0  |  0 KB/s  ]

* - сиды/пиры с внешних источников

   
 
Автор Сообщение

makkol Пол:Муж

05-Мар-2016 11:30

В десяти минутах от нудистов / À dix minutes des naturistes


Год выпуска: 2012
Жанр: комедия
Производство: Франция [Le Tax Shelter du Gouvernement Fédéral de Belgique, TF1, uFilm]
Режиссер: Стефан Клавье
В ролях: Лионель Абелански, Кристин Ситти, Бруно Риччи, Маива Паскуали, Жан-Баптист Фонк, Мари Пейп, Николь Ширер, Хью Хаусман, Сесиль Вангрикен
Сюжет фильма:
Мишель и Валери получают возможность отдохнуть в загородном доме своих работодателей, когда богатая пара, у которой супруги находятся в услужении, отправляется в клинику пластической хирургии. Но приехав в чудесную виллу, герои обнаруживают, что она находится в десяти минутах от нудистского пляжа. Более того, нудисты практически захватили близлежащий городок и обычному человеку в окрестностях просто некуда податься…

  • Мировая премьера: 4 марта 2012


Качество видео: HDTVRip

Продолжительность: 01:27:27
Формат: AVI
Видео: DivX, 1024x576 (1.78:1), 25.000 fps, 2101 kbps
Аудио #1: русский, авторский одноголосый закадровый (Владимир Штейн), MP3 2.0, 48 kHz, 128 kbps
Аудио #2: французский, оригинал, MP3 2.0, 48 kHz, 128 kbps

Код:

Format : AVI
Format/Info : Audio Video Interleave
File size : 1.45 GiB
Duration : 1h 27mn
Overall bit rate : 2 372 Kbps

Video #0
ID : 0
Format : MPEG-4 Visual
Format settings, BVOP : Yes
Format settings, QPel : No
Format settings, GMC : No warppoints
Format settings, Matrix : Default (H.263)
Codec ID : DX50
Codec ID/Hint : DivX 5
Duration : 1h 27mn
Bit rate : 2 101 Kbps
Width : 1 024 pixels
Height : 576 pixels
Display aspect ratio : 16:9
Frame rate : 25.000 fps
Resolution : 24 bits
Colorimetry : 4:2:0
Scan type : Progressive
Bits/(Pixel*Frame) : 0.142
Stream size : 1.28 GiB (89%)
Writing library : DivX 6.6.1.4

Audio #1
ID : 1
Format : MPEG Audio
Format version : Version 1
Format profile : Layer 3
Codec ID : 55
Codec ID/Hint : MP3
Duration : 1h 27mn
Bit rate mode : Constant
Bit rate : 128 Kbps
Channel(s) : 2 channels
Sampling rate : 48.0 KHz
Resolution : 16 bits
Stream size : 80.1 MiB (5%)
Alignment : Aligned on interleaves
Interleave, duration : 40 ms (1.00 video frame)
Interleave, preload duration : 504 ms

Audio #2
ID : 2
Format : MPEG Audio
Format version : Version 1
Format profile : Layer 3
Codec ID : 55
Codec ID/Hint : MP3
Duration : 1h 27mn
Bit rate mode : Constant
Bit rate : 128 Kbps
Channel(s) : 2 channels
Sampling rate : 48.0 KHz
Resolution : 16 bits
Stream size : 80.1 MiB (5%)
Alignment : Split accross interleaves
Interleave, duration : 40 ms (1.00 video frame)
Interleave, preload duration : 500 ms
picpicpicpicpic
Для увеличения картинки щелкните мышкой по превью

Этот торрент недоступен для скачивания без регистрации, однако доступен по публичной magnet-ссылке (источники с публичных трекеров). Перед использованием ссылки прочтите, пожалуйста Пользовательское соглашение, а также как можно дольше оставайтесь на раздаче! Для того, чтобы скачать сам торрент-файл (который видит больше источников), а также для того, чтобы поблагодарить релизера, вам необходимо зарегистрироваться. Если регистрироваться лень - вы можете также попробовать скачать релиз по нашим партнерским ссылкам ниже.

[underverse.su].t63912.torrent
Трекер: Зарегистрирован   [ 05.03.2016 11:30 ]  

Статус: проверено (by makkol at 07.03.2016 23:37)
Поблагодарили: 3 человека
Тип торрента: публичный - доступные источники с открытых трекеров: 
Размер: 1,45 GB (занимает 1/3 DVDR, для записи нужно 1 болванка DVDR/RW)
 
 

Яндекс.Метрика powered by Sphinx


В Н И М А Н И Е
Сайт не распространяет и не хранит электронные версии произведений, а лишь бесплатно и без коммерческой выгоды (не требуя взамен платы,
SMS и т.д.) предоставляет доступ к создаваемому пользователями каталогу ссылок на торрент-файлы, которые содержат только списки хеш-сумм.
Убедительная просьба с жалобами обращаться напрямую к пользователю, разместившему торрент файл.

Вверх