Loading...
Error

Белль и Себастьян, приключение продолжается / Belle et Sebastien, l'aventure continue (Кристиан Дюге) [2015 г., приключения, семейный, драма, DVDRip] VO

Статистика раздачи
Размер:  1,37 GB   |    Зарегистрирован:  9 месяцев   |    Скачан:  11 раз

Полного источника не было: 3 дня

Сидов:  0  |  0 KB/s  ]   Личеров:  0  |  0 KB/s  ]

* - сиды/пиры с внешних источников

   
 
Автор Сообщение

makkol Пол:Муж

04-Мар-2016 15:25

Белль и Себастьян, приключение продолжается / Belle et Sébastien, l'aventure continue


Год выпуска: 2015
Жанр: приключения, семейный, драма
Производство: Франция [Radar Films, Epithète Films, Gaumont]
Режиссер: Кристиан Дюге
В ролях: Феликс Боссюэ, Чеки Карио, Тьерри Нёвик, Марго Шателье, Юрбен Канселье, Тилан Блондо
Сюжет фильма:
Действие картины разворачивается все в той же деревушке под названием Сен Мартен. Время - сентябрь 1945 года, в деревне - празднование окончания войны и начала нового учебного года. Все дети в школе... но только не наш Себастьян. Он прогульщик и ему больше по душе катание на санях по зеленой траве вместе со своей подружкой - собакой по кличке Белль. Вместе с дедушкой Сезаром они с нетерпением ждут возвращения Ангелины, племянницы Сезара, которая должна прилететь самолетом из Англии, где принимала участие в сопротивлении во время войны. Но самолет терпит крушение в самом сердце альпийских лесов. Вся деревня уже потеряла надежду на спасение Ангелины, за исключением Сезара, который знает Пьера — человека способного помочь им найти девушку. На пути к ее спасению мальчику и его собаке предстоит выдержать множество опасностей, пройти через многие испытания и узнать тайну, которая изменит жизнь Белль и Себастьяна навсегда. Приключение продолжается…

Первый фильм о приключениях Белль и Себастьяна

  • Мировая премьера: 6 октября 2015


Качество видео: DVDRip

Продолжительность: 01:36:50
Формат: AVI
Видео: XviD, 720x304 (2.35:1), 24.000 fps, 1637 kbps
Аудио: русский, любительский одноголосый закадровый (Компания АнВад), AC3 5.1, 48 kHz, 384 kbps

Код:

Format : AVI
Format/Info : Audio Video Interleave
File size : 1.37 GiB
Duration : 1h 36mn
Overall bit rate : 2 030 Kbps
Writing application : VirtualDubMod 1.5.10.2 (build 2542/release)
Writing library : VirtualDubMod build 2542/release

Video #0
ID : 0
Format : MPEG-4 Visual
Format profile : Advanced Simple@L5
Format settings, BVOP : 1
Format settings, QPel : No
Format settings, GMC : No warppoints
Format settings, Matrix : Default (H.263)
Codec ID : XVID
Codec ID/Hint : XviD
Duration : 1h 36mn
Bit rate : 1 637 Kbps
Width : 720 pixels
Height : 304 pixels
Display aspect ratio : 2.35:1
Frame rate : 24.000 fps
Color space : YUV
Chroma subsampling : 4:2:0
Bit depth : 8 bits
Scan type : Progressive
Compression mode : Lossy
Bits/(Pixel*Frame) : 0.312
Stream size : 1.11 GiB (81%)
Writing library : XviD 67

Audio #1
ID : 1
Format : AC-3
Format/Info : Audio Coding 3
Mode extension : CM (complete main)
Codec ID : 2000
Duration : 1h 36mn
Bit rate mode : Constant
Bit rate : 384 Kbps
Channel(s) : 6 channels
Channel positions : Front: L C R, Side: L R, LFE
Sampling rate : 48.0 KHz
Bit depth : 16 bits
Compression mode : Lossy
Stream size : 266 MiB (19%)
Alignment : Split accross interleaves
Interleave, duration : 42 ms (1.00 video frame)
Interleave, preload duration : 500 ms
Основой для фильма послужила серия повестей «Белль и Себастьян» французской писательницы и актрисы Сесиль Обри.
На главную роль Себастьяна претендовало 2400 мальчиков. В главной собачьей роли - большой пиренейский зенненхунд / большая пиренейская горная собака - по кличке Гарфилд (и в первой и во второй части фильмов про Белль и Себастьяна в съемках кроме Гарфилда участвовали еще две собаки этой же породы, но по мнению режиссеров именно Гарфилд был безусловной звездой, и большую часть экранного времени в кадре был именно он.
Перевод: Lisok (Lisochek)
Озвучивание: анвад (Андрей Новицкий)
Релиз: adamovna для
picpicpicpicpic
Для увеличения картинки щелкните мышкой по превью

Этот торрент недоступен для скачивания без регистрации, однако доступен по публичной magnet-ссылке (источники с публичных трекеров). Перед использованием ссылки прочтите, пожалуйста Пользовательское соглашение, а также как можно дольше оставайтесь на раздаче! Для того, чтобы скачать сам торрент-файл (который видит больше источников), а также для того, чтобы поблагодарить релизера, вам необходимо зарегистрироваться. Если регистрироваться лень - вы можете также попробовать скачать релиз по нашим партнерским ссылкам ниже.

[underverse.su].t63873.torrent
Трекер: Зарегистрирован   [ 04.03.2016 15:25 ]  

Статус: проверено (by makkol at 04.03.2016 23:29)
Поблагодарили: 1 человек
Тип торрента: публичный - доступные источники с открытых трекеров: 
Размер: 1,37 GB (занимает 0,31 DVDR, для записи нужно 1 болванка DVDR/RW)
 
 
Похожие темы
Форум Тема Автор Торрент Отв. Посл. сооб.
Зарубежное кино [DVDRip, Low-Res HDRip, и т.д.] Белль и Себастьян / Belle et Sebastien (Николя Ванье / Nicolas Vanier) [2013 г., приключения, семейный, драма, экранизация, BDRip] MVO (AzOnFilm) 90ytr90
22 | 3

0 | 92

1

19.11.2016 17:24

Зарубежное кино [DVDRip, Low-Res HDRip, и т.д.] Белль и Себастьян / Belle et Sebastien (Николя Ванье / Nicolas Vanier) [2013 г., приключения, семейный, драма, экранизация, BDRip] MVO (AzOnFilm) 90ytr90
102 | 9

0 | 260

2

19.11.2016 13:35

Зарубежное кино [DVDRip, Low-Res HDRip, и т.д.] Белль и Себастьян / Belle et Sebastien (Николя Ванье / Nicolas Vanier) [2013 г., приключения, HDRip] VO (Pashaup) + Original (Fre) 90ytr90
1 | 0

0 | 294

16

09.04.2014 14:21

* Зарубежное кино [HDDVDRip / BDRip / WEB-DL / HDTV 1080/720р] Белль и Себастьян / Belle et Sebastien (Николя Ванье / Nicolas Vanier) [2013 г., приключения, семейный, драма, экранизация, BDRip 1080p] MVO (AzOnFilm) + VO (АнВад) + Original (Fre) + Sub (Rus, Eng,... 90ytr90
7 | 1

0 | 106

2

25.11.2016 20:24


Яндекс.Метрика powered by Sphinx


В Н И М А Н И Е
Сайт не распространяет и не хранит электронные версии произведений, а лишь бесплатно и без коммерческой выгоды (не требуя взамен платы,
SMS и т.д.) предоставляет доступ к создаваемому пользователями каталогу ссылок на торрент-файлы, которые содержат только списки хеш-сумм.
Убедительная просьба с жалобами обращаться напрямую к пользователю, разместившему торрент файл.

Вверх