Loading...
Error

Наталья Крачковская. Прощай, любимая [2016 г., документальный, биография, SatRip]

Статистика раздачи
Размер:  373 MB   |    Зарегистрирован:  9 месяцев   |    Скачан:  8 раз
Сидов:  1  |  0 KB/s  ]   Личеров:  0  |  0 KB/s  ]

* - сиды/пиры с внешних источников

   
 
Автор Сообщение

ARI71 Пол:Муж

04-Мар-2016 11:50

Наталья Крачковская. Прощай, любимая


Год выпуска: 2016
Жанр: документальный, биография
Страна: Россия, РЕН-ТВ
Режиссер: РЕН-ТВ
Сюжет фильма:
Утром 3 марта на 78-м году жизни скончалась советская и российская актриса, заслуженная артистка России Наталья Крачковская. Первой значимой ролью артистки стала мадам Грицацуева в экранизации произведения Ильфа и Петрова «12 стульев», режиссёром которой выступил Леонид Гайдай. Впоследствии Крачковская снялась во множестве любимых зрителями картин, среди которых «Эта весёлая планета», «Не может быть!», «Мама», «Иван Васильевич меняет профессию», «Место встречи изменить нельзя», «Покровские ворота», «Человек с бульвара Капуцинов», «Аферисты», «На Дерибасовской хорошая погода, или На Брайтон-Бич опять идут дожди» и многих других. В 2001 году была создана «Школа актёрского мастерства Натальи Крачковской», которая специализировалась на обучении детей. В последние годы Наталья Крачковская снималась в телевизионных фильмах и сериалах, принимала участие в телепрограммах, играла в театре.

Ната́лья Леони́довна Крачко́вская (24 ноября 1938, Москва, СССР — 3 марта 2016, Москва, Россия); девичья фамилия Белого́рцева, одно время носила фамилию Белогорцева-Крачковская — советская и российская актриса театра и кино, заслуженная артистка России (1998)
Качество видео: SatRip

Продолжительность: 00:26:06
Формат: AVI
Видео: XviD, 720x400, ~1800 kbps
Аудио: русский, оригинал, AC3 2.0, ~192.00 kbps

Код:

Общее
Полное имя : D:\Наталья Крачковская.Прощай любимая.2016.SATRip.Files-х.avi
Формат : AVI
Формат/Информация : Audio Video Interleave
Размер файла : 373 Мбайт
Продолжительность : 26 м.
Общий поток : 1999 Кбит/сек
Программа кодирования : VirtualDubMod 1.5.10.3 | www.virtualdub-fr.org || (build 2550/release)
Библиотека кодирования : VirtualDubMod build 2550/release

Видео
Идентификатор : 0
Формат : MPEG-4 Visual
Профиль формата : Advanced Simple@L5
Параметр BVOP формата : 1
Параметр QPel формата : Нет
Параметр GMC формата : Без точки перехода
Параметр матрицы формата : Выборочная
Идентификатор кодека : XVID
Идентификатор кодека/Подсказка : XviD
Продолжительность : 26 м.
Битрейт : 1797 Кбит/сек
Ширина : 720 пикселей
Высота : 400 пикселей
Соотношение сторон : 16:9
Частота кадров : 25,000 кадров/сек
Цветовое пространство : YUV
Субдискретизация насыщенности : 4:2:0
Битовая глубина : 8 бит
Тип развёртки : Прогрессивная
Метод сжатия : С потерями
Бит/(Пиксели*Кадры) : 0.250
Размер потока : 335 Мбайт (90%)
Библиотека кодирования : XviD 73

Аудио
Идентификатор : 1
Формат : AC-3
Формат/Информация : Audio Coding 3
Расширение режима : CM (complete main)
Параметр Endianness формата : Big
Идентификатор кодека : 2000
Продолжительность : 26 м.
Вид битрейта : Постоянный
Битрейт : 192 Кбит/сек
Каналы : 2 канала
Расположение каналов : Front: L R
Частота : 48,0 КГц
Метод сжатия : С потерями
Размер потока : 35,8 Мбайт (10%)
Выравнивание : Разделение по промежуткам
Продолжительность промежутка : 40 мс. (1,00 видеокадр)
Время предзагрузки промежутка : 500 мс.
picpicpicpic
Для увеличения картинки щелкните мышкой по превью

Этот торрент недоступен для скачивания без регистрации, однако доступен по публичной magnet-ссылке (источники с публичных трекеров). Перед использованием ссылки прочтите, пожалуйста Пользовательское соглашение, а также как можно дольше оставайтесь на раздаче! Для того, чтобы скачать сам торрент-файл (который видит больше источников), а также для того, чтобы поблагодарить релизера, вам необходимо зарегистрироваться. Если регистрироваться лень - вы можете также попробовать скачать релиз по нашим партнерским ссылкам ниже.

[underverse.su].t63866.torrent
Трекер: Зарегистрирован   [ 04.03.2016 11:50 ]  

Статус: проверено (by makkol at 04.03.2016 14:50)
Поблагодарили: 1 человек
Тип торрента: публичный - доступные источники с открытых трекеров: 
Размер: 373 MB (занимает 0,08 DVDR, для записи нужно 1 болванка DVDR/RW)
 
 

Яндекс.Метрика powered by Sphinx


В Н И М А Н И Е
Сайт не распространяет и не хранит электронные версии произведений, а лишь бесплатно и без коммерческой выгоды (не требуя взамен платы,
SMS и т.д.) предоставляет доступ к создаваемому пользователями каталогу ссылок на торрент-файлы, которые содержат только списки хеш-сумм.
Убедительная просьба с жалобами обращаться напрямую к пользователю, разместившему торрент файл.

Вверх