Loading...
Error

Голые землекопы / The naked mole rat [1996 г., документальный, флора, фауна, TVRip] VO

Статистика раздачи
Размер:  216 MB   |    Зарегистрирован:  8 месяцев   |    Скачан:  2 раза

Полного источника не было: 9 дней

Сидов:  0  |  0 KB/s  ]   Личеров:  0  |  0 KB/s  ]

* - сиды/пиры с внешних источников

   
 
Автор Сообщение

ARI71 Пол:Муж

03-Мар-2016 19:27

Голые землекопы / The naked mole rat


Год выпуска: 1996
Жанр: документальный, флора, фауна
Страна: Германия
Режиссер: Герберт Освальд
Сюжет фильма:
Раскаленные пески Восточной Африки. Здесь живет странное млекопитающее размером с мышь. За необычную внешность его называли и песчаной собачкой, и взрослым эмбрионом, и ходячим пальцем. Животное обитает в саваннах и полупустынях Сомали. Живет под землей в многочисленных тоннелях. Его зовут голый землекоп.
Качество видео: TVRip

Продолжительность: 00:50:31
Формат: Windows Media
Видео: WMV, 720х576, 571 kbps
Аудио: русский, одноголосый [профессиональный ], WMA, 20,0 kbps

Код:

Общее
Полное имя : D:\Голые землекопы.wmv
Формат : Windows Media
Размер файла : 216 Мбайт
Продолжительность : 50 м.
Режим общего битрейта : Переменный
Общий поток : 597 Кбит/сек
Максимальный общий битрейт : 1529 Кбит/сек
Дата кодирования : UTC 2008-04-06 11:42:45.836

Видео
Идентификатор : 2
Формат : VC-1
Профиль формата : MP@ML
Идентификатор кодека : WMV3
Идентификатор кодека/Информация : Windows Media Video 9
Идентификатор кодека/Подсказка : WMV3
Описание кодека : Windows Media Video 9
Продолжительность : 50 м.
Вид битрейта : Переменный
Битрейт : 571 Кбит/сек
Ширина : 720 пикселей
Высота : 576 пикселей
Соотношение сторон : 4:3
Частота кадров : 25,000 кадров/сек
Стандарт вещания : PAL
Цветовое пространство : YUV
Субдискретизация насыщенности : 4:2:0
Битовая глубина : 8 бит
Тип развёртки : Прогрессивная
Метод сжатия : С потерями
Бит/(Пиксели*Кадры) : 0.055
Размер потока : 206 Мбайт (96%)

Аудио
Идентификатор : 1
Формат : WMA
Версия формата : Version 2
Идентификатор кодека : 161
Идентификатор кодека/Информация : Windows Media Audio
Описание кодека : Windows Media Audio 9.2 - 20 kbps, 44 kHz, mono 2-pass CBR
Продолжительность : 50 м.
Вид битрейта : Постоянный
Битрейт : 20,0 Кбит/сек
Каналы : 1 канал
Частота : 44,1 КГц
Битовая глубина : 16 бит
Размер потока : 7,23 Мбайт (3%)
picpicpicpic
Для увеличения картинки щелкните мышкой по превью

Этот торрент недоступен для скачивания без регистрации, однако доступен по публичной magnet-ссылке (источники с публичных трекеров). Перед использованием ссылки прочтите, пожалуйста Пользовательское соглашение, а также как можно дольше оставайтесь на раздаче! Для того, чтобы скачать сам торрент-файл (который видит больше источников), а также для того, чтобы поблагодарить релизера, вам необходимо зарегистрироваться. Если регистрироваться лень - вы можете также попробовать скачать релиз по нашим партнерским ссылкам ниже.

[underverse.su].t63850.torrent
Трекер: Зарегистрирован   [ 03.03.2016 19:27 ]  

Статус: проверено (by Паукан at 03.03.2016 22:22)
Поблагодарили: 1 человек
Тип торрента: публичный - доступные источники с открытых трекеров: 
Размер: 216 MB (занимает 0,05 DVDR, для записи нужно 1 болванка DVDR/RW)
 
 

Яндекс.Метрика powered by Sphinx


В Н И М А Н И Е
Сайт не распространяет и не хранит электронные версии произведений, а лишь бесплатно и без коммерческой выгоды (не требуя взамен платы,
SMS и т.д.) предоставляет доступ к создаваемому пользователями каталогу ссылок на торрент-файлы, которые содержат только списки хеш-сумм.
Убедительная просьба с жалобами обращаться напрямую к пользователю, разместившему торрент файл.

Вверх