Loading...
Error

Если дорог тебе твой дом [1967 г., документальный, история, интервью, TVRip]

Статистика раздачи
Размер:  382 MB   |    Зарегистрирован:  9 месяцев   |    Скачан:  5 раз

Полного источника не было: 4 месяца 21 день

Сидов:  0  |  0 KB/s  ]   Личеров:  0  |  0 KB/s  ]

* - сиды/пиры с внешних источников

   
 
Автор Сообщение

ARI71 Пол:Муж

03-Мар-2016 17:17

Если дорог тебе твой дом. (Полная версия - без цензуры)


Год выпуска: 1967
Жанр: документальный, история, интервью
Страна: СССР
Режиссер: Константин Симонов
Сюжет фильма:
Не так давно на просторах интернета появилось "запрещенное к показу" интервью Георгия Жукова, в нем известный писатель Константин Симонов беседует с легендарным военачальником, и затрагивает в основном тему боев 1941 года и обороны Москвы.

Эта беседа записывалась к 25-летию Битвы под Москвой и она должна была стать частью проекта "Если дорог тебе твой дом", но так и не стала. Фильм "Если дорог тебе твой дом" постигла не менее трагическая судьба - он вышел в 1967 году только после значительного монтажа, многие кадры убрали по настоянию цензуры (тема поражений 1941-1942 года никогда не приветствовалась в Советское время) Главного политического управления Советской Армии и Военно-Морского флота, до недавнего времени о нем почти никто не слышал и мало кто видел, но благодаря нашим партнерам его удалось разыскать в архивах французской студии Гомон (Gaumont), сильный и тяжелый по содержанию фильм о 1941 годе, это не просто документалистика - это Константин Симонов.

Вы увидите вырезанные части фильма посвященные 1941-1942 годам. В полной версии есть, то самое "запрещенное интервью" Жукова и много других уникальных кадров и свидетельств. В материале доступные обе версии фильма.
Качество видео: TVRip

Продолжительность: 01:32:36
Формат: МР4
Видео: MPEG-4 AVC, 566х360, 478 kbps
Аудио: русский, оригинал, AAC 2.0, 96,0 kbps

Код:

Общее
Полное имя : D:\Если дорог тебе твой дом (1967).mp4
Формат : MPEG-4
Профиль формата : Base Media / Version 2
Идентификатор кодека : mp42
Размер файла : 382 Мбайт
Продолжительность : 1 ч. 32 м.
Режим общего битрейта : Переменный
Общий поток : 576 Кбит/сек
Дата кодирования : UTC 2016-03-01 14:24:49
Дата пометки : UTC 2016-03-01 14:24:49
gsst : 0
gstd : 5556743

Видео
Идентификатор : 1
Формат : AVC
Формат/Информация : Advanced Video Codec
Профиль формата : Baseline@L3
Параметр CABAC формата : Нет
Параметр ReFrames формата : 1 кадр
Параметр GOP формата : M=1, N=60
Идентификатор кодека : avc1
Идентификатор кодека/Информация : Advanced Video Coding
Продолжительность : 1 ч. 32 м.
Битрейт : 478 Кбит/сек
Максимальный битрейт : 1982 Кбит/сек
Ширина : 566 пикселей
Высота : 360 пикселей
Соотношение сторон : 16:10
Режим частоты кадров : Постоянный
Частота кадров : 25,000 кадров/сек
Цветовое пространство : YUV
Субдискретизация насыщенности : 4:2:0
Битовая глубина : 8 бит
Тип развёртки : Прогрессивная
Бит/(Пиксели*Кадры) : 0.094
Размер потока : 317 Мбайт (83%)
Дата пометки : UTC 2016-03-01 14:25:58

Аудио
Идентификатор : 2
Формат : AAC
Формат/Информация : Advanced Audio Codec
Профиль формата : LC
Идентификатор кодека : 40
Продолжительность : 1 ч. 32 м.
Вид битрейта : Переменный
Битрейт : 96,0 Кбит/сек
Максимальный битрейт : 102 Кбит/сек
Каналы : 2 канала
Расположение каналов : Front: L R
Частота : 44,1 КГц
Метод сжатия : С потерями
Размер потока : 63,6 Мбайт (17%)
Заголовок : IsoMedia File Produced by Google, 5-11-2011
Язык : English
Дата кодирования : UTC 2016-03-01 14:25:28
Дата пометки : UTC 2016-03-01 14:25:58
picpicpicpic
Для увеличения картинки щелкните мышкой по превью

Этот торрент недоступен для скачивания без регистрации, однако доступен по публичной magnet-ссылке (источники с публичных трекеров). Перед использованием ссылки прочтите, пожалуйста Пользовательское соглашение, а также как можно дольше оставайтесь на раздаче! Для того, чтобы скачать сам торрент-файл (который видит больше источников), а также для того, чтобы поблагодарить релизера, вам необходимо зарегистрироваться. Если регистрироваться лень - вы можете также попробовать скачать релиз по нашим партнерским ссылкам ниже.

[underverse.su].t63840.torrent
Трекер: Зарегистрирован   [ 03.03.2016 17:21 ]  

Статус: проверено (by makkol at 03.03.2016 22:18)
Поблагодарили: пока никто не поблагодарил...
Тип торрента: публичный - доступные источники с открытых трекеров: 
Размер: 382 MB (занимает 0,09 DVDR, для записи нужно 1 болванка DVDR/RW)
 
 

ARI71 Пол:Муж

03-Мар-2016 18:10

Прошу модераторов перенести релиз в раздел - Военные хроники


Яндекс.Метрика powered by Sphinx


В Н И М А Н И Е
Сайт не распространяет и не хранит электронные версии произведений, а лишь бесплатно и без коммерческой выгоды (не требуя взамен платы,
SMS и т.д.) предоставляет доступ к создаваемому пользователями каталогу ссылок на торрент-файлы, которые содержат только списки хеш-сумм.
Убедительная просьба с жалобами обращаться напрямую к пользователю, разместившему торрент файл.

Вверх