Loading...
Error

Куклы / Dolls (Стюарт Гордон) [1987 г., ужасы, мистика, BDRip] MVO + DVO + AVO

Статистика раздачи
Размер:  1,56 GB   |    Зарегистрирован:  9 месяцев   |    Скачан:  5 раз

Полного источника не было: 9 часов

Сидов:  0  |  0 KB/s  ]   Личеров:  0  |  0 KB/s  ]

* - сиды/пиры с внешних источников

   
 
Автор Сообщение

makkol Пол:Муж

03-Мар-2016 11:30

Куклы / Dolls
«Они говорят, они ходят, они убивают!»


Год выпуска: 1987
Жанр: ужасы, мистика
Производство: США , Италия [Empire Pictures, Taryn Productions Inc.]
Режиссер: Стюарт Гордон
В ролях: Йен Патрик Уильямс, Кэролин Пёрди-Гордон, Кэрри Лоррэйн, Гай Рольф, Хилари Мейсон, Банти Бэйли, Кэсси Стюарт, Стивен Ли
Сюжет фильма:
Застигнутые ненастьем путешественники попадают в усадьбу в лесу, где проживает странная пожилая пара. Созданные этими супругами куклы обладают способностью оживать и даже убивать тех, кто им не нравится…

  • Мировая премьера: 12 марта 1987


Качество видео: BDRip

Продолжительность: 01:17:37
Формат: AVI
Видео: XviD, 720x384 (1.85:1), 23.976 fps, 2098 kbps
Аудио #1: русский, профессиональный многоголосый закадровый (НТВ), AC3 2.0, 48 kHz, 192 kbps
Аудио #2: русский, профессиональный двухголосый закадровый (НТВ+), AC3 2.0, 48 kHz, 192 kbps
Аудио #3: русский, авторский одноголосый закадровый (Павел Санаев), AC3 2.0, 48 kHz, 192 kbps
Аудио #4: русский, авторский одноголосый закадровый (Леонид Володарский), AC3 2.0, 48 kHz, 192 kbps - отдельно

Код:

Format : AVI
Format/Info : Audio Video Interleave
File size : 1.46 GiB
Duration : 1h 17mn
Overall bit rate : 2 695 Kbps
Writing application : VirtualDubMod 1.5.10.2 (build 2540/release)
Writing library : VirtualDubMod build 2540/release

Video
ID : 0
Format : MPEG-4 Visual
Format profile : Advanced Simple@L5
Format settings, BVOP : 2
Format settings, QPel : No
Format settings, GMC : No warppoints
Format settings, Matrix : Custom
Codec ID : XVID
Codec ID/Hint : XviD
Duration : 1h 17mn
Bit rate : 2 099 Kbps
Width : 720 pixels
Height : 384 pixels
Display aspect ratio : 1.85:1
Frame rate : 23.976 fps
Color space : YUV
Chroma subsampling : 4:2:0
Bit depth : 8 bits
Scan type : Progressive
Compression mode : Lossy
Bits/(Pixel*Frame) : 0.317
Stream size : 1.14 GiB (78%)
Writing library : XviD 1.2.1 (UTC 2008-12-04)

Audio #1
ID : 1
Format : AC-3
Format/Info : Audio Coding 3
Mode extension : CM (complete main)
Format settings, Endianness : Big
Codec ID : 2000
Duration : 1h 17mn
Bit rate mode : Constant
Bit rate : 192 Kbps
Channel count : 2 channels
Channel positions : Front: L R
Sampling rate : 48.0 KHz
Bit depth : 16 bits
Compression mode : Lossy
Stream size : 107 MiB (7%)
Alignment : Split accross interleaves
Interleave, duration : 42 ms (1.00 video frame)
Interleave, preload duration : 500 ms

Audio #2
ID : 2
Format : AC-3
Format/Info : Audio Coding 3
Mode extension : CM (complete main)
Format settings, Endianness : Big
Codec ID : 2000
Duration : 1h 17mn
Bit rate mode : Constant
Bit rate : 192 Kbps
Channel count : 2 channels
Channel positions : Front: L R
Sampling rate : 48.0 KHz
Bit depth : 16 bits
Compression mode : Lossy
Stream size : 107 MiB (7%)
Alignment : Split accross interleaves
Interleave, duration : 42 ms (1.00 video frame)
Interleave, preload duration : 500 ms

Audio #3
ID : 3
Format : AC-3
Format/Info : Audio Coding 3
Mode extension : CM (complete main)
Format settings, Endianness : Big
Codec ID : 2000
Duration : 1h 17mn
Bit rate mode : Constant
Bit rate : 192 Kbps
Channel count : 2 channels
Channel positions : Front: L R
Sampling rate : 48.0 KHz
Bit depth : 16 bits
Compression mode : Lossy
Stream size : 107 MiB (7%)
Alignment : Split accross interleaves
Interleave, duration : 42 ms (1.00 video frame)
Interleave, preload duration : 500 ms
picpicpicpicpic
Для увеличения картинки щелкните мышкой по превью

Этот торрент недоступен для скачивания без регистрации, однако доступен по публичной magnet-ссылке (источники с публичных трекеров). Перед использованием ссылки прочтите, пожалуйста Пользовательское соглашение, а также как можно дольше оставайтесь на раздаче! Для того, чтобы скачать сам торрент-файл (который видит больше источников), а также для того, чтобы поблагодарить релизера, вам необходимо зарегистрироваться. Если регистрироваться лень - вы можете также попробовать скачать релиз по нашим партнерским ссылкам ниже.

[underverse.su].t63818.torrent
Трекер: Зарегистрирован   [ 03.03.2016 11:30 ]  

Статус: проверено (by makkol at 03.03.2016 22:20)
Поблагодарили: пока никто не поблагодарил...
Тип торрента: публичный - доступные источники с открытых трекеров: 
Размер: 1,56 GB (занимает 0,36 DVDR, для записи нужно 1 болванка DVDR/RW)
 
 

Яндекс.Метрика powered by Sphinx


В Н И М А Н И Е
Сайт не распространяет и не хранит электронные версии произведений, а лишь бесплатно и без коммерческой выгоды (не требуя взамен платы,
SMS и т.д.) предоставляет доступ к создаваемому пользователями каталогу ссылок на торрент-файлы, которые содержат только списки хеш-сумм.
Убедительная просьба с жалобами обращаться напрямую к пользователю, разместившему торрент файл.

Вверх