Loading...
Error

От Царя к Ленину / Tsar to Lenin [1937 г., документальный, история, хроника, DVDRip] Original (Eng) + SUB (Rus)

Статистика раздачи
Размер:  895 MB   |    Зарегистрирован:  9 месяцев   |    Скачан:  11 раз

Полного источника не было: 3 дня

Сидов:  0  |  0 KB/s  ]   Личеров:  0  |  0 KB/s  ]

* - сиды/пиры с внешних источников

   
 
Автор Сообщение

ARI71 Пол:Муж

03-Мар-2016 11:17

От Царя к Ленину / Tsar to Lenin


Год выпуска: 1937
Жанр: документальный, история, хроника
Страна: США
Режиссер: Герман Аксельбанк
Сюжет фильма:
Этот фильм, впервые выпущенный в 1937 году, продолжает занимать одно из первых мест среди величайших документальных хроник XX века. Он представляет собой поразительный рассказ о русской революции, начиная от массового восстания в феврале 1917 года, в результате которого был свергнут веками существовавший царский режим, до организованной спустя 8 месяцев под руководством большевиков Октябрьской революции, итогом которой стало образование первого в мире социалистического государства, и до окончательной победы Советской власти над контрреволюционными силами в 1921 году после трёхлетней Гражданской войны...
Качество видео: DVDRip

Продолжительность: 01:03:18
Формат: AVI
Видео: XviD, 640x480, ~1844 kbps
Аудио: английский, оригинал, MP3 2.0, ~128.00 kbps
Субтитры: русские внешние, SRT

Код:

Общее
Полное имя : D:\От Царя к Ленину\Tsar to Lenin (1937) (DVDRip) [Guild55].avi
Формат : AVI
Формат/Информация : Audio Video Interleave
Размер файла : 895 Мбайт
Продолжительность : 1 ч. 3 м.
Общий поток : 1978 Кбит/сек

Видео
Идентификатор : 0
Формат : MPEG-4 Visual
Профиль формата : Advanced Simple@L5
Параметр BVOP формата : 2
Параметр QPel формата : Нет
Параметр GMC формата : Без точки перехода
Параметр матрицы формата : Выборочная
Идентификатор кодека : XVID
Идентификатор кодека/Подсказка : XviD
Продолжительность : 1 ч. 3 м.
Битрейт : 1844 Кбит/сек
Ширина : 640 пикселей
Высота : 480 пикселей
Соотношение сторон : 4:3
Частота кадров : 23,976 кадра/сек
Цветовое пространство : YUV
Субдискретизация насыщенности : 4:2:0
Битовая глубина : 8 бит
Тип развёртки : Прогрессивная
Метод сжатия : С потерями
Бит/(Пиксели*Кадры) : 0.250
Размер потока : 835 Мбайт (93%)
Библиотека кодирования : XviD 1.2.1 (UTC 2008-12-04)

Аудио
Идентификатор : 1
Формат : MPEG Audio
Версия формата : Version 1
Профиль формата : Layer 3
Режим : Joint stereo
Расширение режима : MS Stereo
Идентификатор кодека : 55
Идентификатор кодека/Подсказка : MP3
Продолжительность : 1 ч. 3 м.
Вид битрейта : Постоянный
Битрейт : 128 Кбит/сек
Каналы : 2 канала
Частота : 48,0 КГц
Метод сжатия : С потерями
Размер потока : 58,0 Мбайт (6%)
Выравнивание : Соединение по промежуткам
Продолжительность промежутка : 167 мс. (4,00 видеокадра)
Время предзагрузки промежутка : 216 мс.
Заголовок : English
Библиотека кодирования : LAME3.99r
Настройки программы : -m j -V 4 -q 2 -lowpass 17 -b 128
picpicpicpic
Для увеличения картинки щелкните мышкой по превью

Этот торрент недоступен для скачивания без регистрации, однако доступен по публичной magnet-ссылке (источники с публичных трекеров). Перед использованием ссылки прочтите, пожалуйста Пользовательское соглашение, а также как можно дольше оставайтесь на раздаче! Для того, чтобы скачать сам торрент-файл (который видит больше источников), а также для того, чтобы поблагодарить релизера, вам необходимо зарегистрироваться. Если регистрироваться лень - вы можете также попробовать скачать релиз по нашим партнерским ссылкам ниже.

[underverse.su].t63817.torrent
Трекер: Зарегистрирован   [ 03.03.2016 11:17 ]  

Статус: проверено (by makkol at 03.03.2016 11:50)
Поблагодарили: 2 человека
Тип торрента: публичный - доступные источники с открытых трекеров: 
Размер: 895 MB (занимает 0,2 DVDR, для записи нужно 1 болванка DVDR/RW)
 
 

ARI71 Пол:Муж

03-Мар-2016 11:40


Яндекс.Метрика powered by Sphinx


В Н И М А Н И Е
Сайт не распространяет и не хранит электронные версии произведений, а лишь бесплатно и без коммерческой выгоды (не требуя взамен платы,
SMS и т.д.) предоставляет доступ к создаваемому пользователями каталогу ссылок на торрент-файлы, которые содержат только списки хеш-сумм.
Убедительная просьба с жалобами обращаться напрямую к пользователю, разместившему торрент файл.

Вверх