Loading...
Error

Прощание (Владислав Листьев) [2016 г., документальный, биография, история, SatRip]

Статистика раздачи
Размер:  540 MB   |    Зарегистрирован:  9 месяцев   |    Скачан:  6 раз

Полного источника не было: 5 месяцев 8 дней

Сидов:  0  |  0 KB/s  ]   Личеров:  0  |  0 KB/s  ]

* - сиды/пиры с внешних источников

   
 
Автор Сообщение

ARI71 Пол:Муж

02-Мар-2016 10:22

Прощание (Владислав Листьев)


Год выпуска: 2016
Жанр: документальный, биография, история
Страна: Россия, ТВЦ
Режиссер: ТВЦ
Сюжет фильма:
1 марта 1995 года был убит популярный телеведущий и первый генеральный директор ОРТ Влад Листьев. Прощание с ним началось в фойе 17-го подъезда телецентра Останкино, где он сделал блестящую карьеру и приобрёл врагов, "заказавших" его убийство... Президент России Борис Ельцин призвал немедленно найти убийцу. Но ни убийца, ни заказчики так и не были найдены...

Владисла́в Никола́евич Ли́стьев (10 мая 1956, Москва — 1 марта 1995, там же) — советский и российский телеведущий и журналист, первый генеральный директор ОРТ, предприниматель. Автор и первый ведущий таких передач, как «Взгляд», «Час пик», «Поле чудес». Был убит 1 марта 1995 года.
Качество видео: SatRip

Продолжительность: 00:41:05
Формат: AVI
Видео: XviD, 704x448, ~1699 kbps
Аудио: русский, оригинал, MP3 2.0, ~128.00 kbps

Код:

Общее
Полное имя : D:\Прощание.Влад Листьев.2016.SATRip.avi
Формат : AVI
Формат/Информация : Audio Video Interleave
Размер файла : 540 Мбайт
Продолжительность : 41 м.
Общий поток : 1837 Кбит/сек
Программа кодирования : VirtualDubMod 1.5.10.3 | www.virtualdub-fr.org || (build 2550/release)
Библиотека кодирования : VirtualDubMod build 2550/release

Видео
Идентификатор : 0
Формат : MPEG-4 Visual
Профиль формата : Advanced Simple@L5
Параметр BVOP формата : 2
Параметр QPel формата : Нет
Параметр GMC формата : Без точки перехода
Параметр матрицы формата : Default (MPEG)
Идентификатор кодека : XVID
Идентификатор кодека/Подсказка : XviD
Продолжительность : 41 м.
Битрейт : 1700 Кбит/сек
Ширина : 704 пикселя
Высота : 448 пикселей
Соотношение сторон : 16:10
Частота кадров : 25,000 кадров/сек
Цветовое пространство : YUV
Субдискретизация насыщенности : 4:2:0
Битовая глубина : 8 бит
Тип развёртки : Прогрессивная
Метод сжатия : С потерями
Бит/(Пиксели*Кадры) : 0.216
Размер потока : 499 Мбайт (93%)
Библиотека кодирования : XviD 73

Аудио
Идентификатор : 1
Формат : MPEG Audio
Версия формата : Version 1
Профиль формата : Layer 3
Идентификатор кодека : 55
Идентификатор кодека/Подсказка : MP3
Продолжительность : 41 м.
Вид битрейта : Постоянный
Битрейт : 128 Кбит/сек
Каналы : 2 канала
Частота : 48,0 КГц
Метод сжатия : С потерями
Размер потока : 37,6 Мбайт (7%)
Выравнивание : Соединение по промежуткам
Продолжительность промежутка : 40 мс. (1,00 видеокадр)
Время предзагрузки промежутка : 504 мс.
Библиотека кодирования : LAME3.99r
Настройки программы : -m s -V 4 -q 2 -lowpass 17 -b 128
Релиз группы:

picpicpicpic
Для увеличения картинки щелкните мышкой по превью

Этот торрент недоступен для скачивания без регистрации, однако доступен по публичной magnet-ссылке (источники с публичных трекеров). Перед использованием ссылки прочтите, пожалуйста Пользовательское соглашение, а также как можно дольше оставайтесь на раздаче! Для того, чтобы скачать сам торрент-файл (который видит больше источников), а также для того, чтобы поблагодарить релизера, вам необходимо зарегистрироваться. Если регистрироваться лень - вы можете также попробовать скачать релиз по нашим партнерским ссылкам ниже.

[underverse.su].t63790.torrent
Трекер: Зарегистрирован   [ 02.03.2016 10:22 ]  

Статус: проверено (by makkol at 02.03.2016 10:44)
Поблагодарили: 1 человек
Тип торрента: публичный - доступные источники с открытых трекеров: 
Размер: 540 MB (занимает 0,12 DVDR, для записи нужно 1 болванка DVDR/RW)
 
 
Похожие темы
Форум Тема Автор Торрент Отв. Посл. сооб.
Личности Прощание (Нонна Мордюкова) [2016 г., документальный, биография, IPTVRip] ARI71
8 | 1

0 | 200

1

22.11.2016 21:34

Личности Прощание (Юрий Щекочихин) [2016 г., документальный, биография, политика, IPTVRip] ARI71
2 | 3

0 | 122

2

15.11.2016 15:33

Личности Прощание (Любовь Полищук) [2016 г., документальный, биография, история, IPTVRip] ARI71
3 | 0

0 | 130

0

08.11.2016 16:17

Личности Прощание (Игорь Тальков) [2016 г., документальный, биография, история, IPTVRip] ARI71
3 | 0

0 | 199

1

01.11.2016 17:12

Личности Прощание (Никита Хрущёв) [2016 г., документальный, биография, история, SatRip] ARI71
2 | 0

1 | 552

12

14.04.2016 12:56

T Личности Прощание (1-14 серии из ??) [2015-2016 г., документальный, биография, SatRip] ARI71
0 | 0

0 | 553

1

24.04.2016 16:42

ARI71 Пол:Муж

02-Мар-2016 12:45


Яндекс.Метрика powered by Sphinx


В Н И М А Н И Е
Сайт не распространяет и не хранит электронные версии произведений, а лишь бесплатно и без коммерческой выгоды (не требуя взамен платы,
SMS и т.д.) предоставляет доступ к создаваемому пользователями каталогу ссылок на торрент-файлы, которые содержат только списки хеш-сумм.
Убедительная просьба с жалобами обращаться напрямую к пользователю, разместившему торрент файл.

Вверх