Loading...
Error

Путь на юг / Southbound (Роксанна Бенжамин, Дэвид Брукнер, Патрик Хорват) [2015 г., ужасы, фантастика, триллер, WEB-DLRip] VO

Статистика раздачи
Размер:  1,47 GB   |    Зарегистрирован:  9 месяцев   |    Скачан:  14 раз
Сидов:  1  |  1 KB/s  ]   Личеров:  0  |  0 KB/s  ]

* - сиды/пиры с внешних источников

   
 
Автор Сообщение

makkol Пол:Муж

01-Мар-2016 22:42

Путь на юг / Southbound


Год выпуска: 2015
Жанр: ужасы, фантастика, триллер
Производство: США [Willowbrook Regent Films]
Режиссер: Роксанна Бенжамин, Дэвид Брукнер, Патрик Хорват
В ролях: Кейт Бихан, Мэттью Беттинелли, Сьюзэн Бурк, Зои Купер, Джералд Дауни, Карла Дродж, Ларри Фессенден, Дэна Гулд, Хасси Харрисон, Дэйв Джонсон
Сюжет фильма:
Пустынный участок дороги, усталые путники — двое мужчин, бегущих от своего прошлого, группа на пути к следующему концерту, человек пытающийся попасть домой, брат в поисках давно потерянной сестры и семьи на отдыхе — вынуждены противостоять своим страхам и самым темным тайнам, чтобы раскаяться на дороге.

  • Мировая премьера: 16 сентября 2015


Качество видео: WEB-DLRip

Продолжительность: 01:29:03
Формат: AVI
Видео: XviD, 720x304 (2.35:1), 23.976 fps, 2159 kbps
Аудио: русский, любительский одноголосый закадровый, AC3 2.0, 48 kHz, 192 kbps

Код:

Формат                                   : AVI
Формат/Информация                        : Audio Video Interleave
Размер файла                             : 1,47 Гбайт
Продолжительность                        : 1 ч. 29 м.
Общий поток                              : 2360 Кбит/сек

Видео
Идентификатор                            : 0
Формат                                   : MPEG-4 Visual
Профиль формата                          : Advanced Simple@L5
Параметр BVOP формата                    : 2
Параметр QPel формата                    : Нет
Параметр GMC формата                     : Без точки перехода
Параметр матрицы формата                 : Default (H.263)
Идентификатор кодека                     : XVID
Идентификатор кодека/Подсказка           : XviD
Продолжительность                        : 1 ч. 29 м.
Битрейт                                  : 2159 Кбит/сек
Ширина                                   : 720 пикселей
Высота                                   : 304 пикселя
Соотношение сторон                       : 2,35:1
Частота кадров                           : 23,976 кадра/сек
Цветовое пространство                    : YUV
Субдискретизация насыщенности            : 4:2:0
Битовая глубина                          : 8 бит
Тип развёртки                            : Прогрессивная
Метод сжатия                             : С потерями
Бит/(Пиксели*Кадры)                      : 0.411
Размер потока                            : 1,34 Гбайт (91%)
Библиотека кодирования                   : XviD 67

Аудио
Идентификатор                            : 1
Формат                                   : AC-3
Формат/Информация                        : Audio Coding 3
Расширение режима                        : CM (complete main)
Параметр Endianness формата              : Big
Идентификатор кодека                     : 2000
Продолжительность                        : 1 ч. 29 м.
Вид битрейта                             : Постоянный
Битрейт                                  : 192 Кбит/сек
Каналы                                   : 2 канала
Расположение каналов                     : Front: L R
Частота                                  : 48,0 КГц
Битовая глубина                          : 16 бит
Метод сжатия                             : С потерями
Размер потока                            : 122 Мбайт (8%)
Выравнивание                             : Разделение по промежуткам
Продолжительность промежутка             : 42  мс. (1,00 видеокадр)
Время предзагрузки промежутка            : 500  мс.
Перевод: Enigma
Озвучивание: Васька Куролесов
Релиз от:
picpicpicpicpic
Для увеличения картинки щелкните мышкой по превью

Этот торрент недоступен для скачивания без регистрации, однако доступен по публичной magnet-ссылке (источники с публичных трекеров). Перед использованием ссылки прочтите, пожалуйста Пользовательское соглашение, а также как можно дольше оставайтесь на раздаче! Для того, чтобы скачать сам торрент-файл (который видит больше источников), а также для того, чтобы поблагодарить релизера, вам необходимо зарегистрироваться. Если регистрироваться лень - вы можете также попробовать скачать релиз по нашим партнерским ссылкам ниже.

[underverse.su].t63785.torrent
Трекер: Зарегистрирован   [ 01.03.2016 22:42 ]  

Статус: проверено (by makkol at 01.03.2016 23:30)
Поблагодарили: пока никто не поблагодарил...
Тип торрента: публичный - доступные источники с открытых трекеров: 
Размер: 1,47 GB (занимает 0,34 DVDR, для записи нужно 1 болванка DVDR/RW)
 
 
Похожие темы
Форум Тема Автор Торрент Отв. Посл. сооб.
Зарубежное кино [DVDRip, Low-Res HDRip, и т.д.] Путь на юг / Southbound (Роксанна Бенжамин, Дэвид Брукнер, Патрик Хорват) [2015 г., ужасы, фантастика, триллер, WEB-DLRip] AVO (Есарев) makkol
19 | 0

0 | 817

9

09.05.2016 23:21

Зарубежное кино [HDDVDRip / BDRip / WEB-DL / HDTV 1080/720р] Путь на юг / Southbound (Роксанна Бенжамин, Дэвид Брукнер, Патрик Хорват) [2015 г., ужасы, фантастика, триллер, WEB-DL 720p] VO makkol
6 | 0

0 | 786

16

01.03.2016 22:52

Зарубежное кино [HDDVDRip / BDRip / WEB-DL / HDTV 1080/720р] Путь на юг / Southbound (Роксанна Бенжамин, Дэвид Брукнер, Патрик Хорват, ...) [2015 г., ужасы, фантастика, триллер, BDRip 720p] VO (Васька Куролесов) + 2xAVO (Есарев) + Original (Eng) + Sub (Eng) 90ytr90
14 | 0

0 | 351

5

09.08.2016 17:03

# Зарубежное кино [HDDVDRip / BDRip / WEB-DL / HDTV 1080/720р] Путь на юг / Southbound (Роксанна Бенжамин, Дэвид Брукнер, Патрик Хорват, ...) [2015 г., ужасы, фантастика, триллер, BDRip 1080p] VO (Васька Куролесов) + 2xAVO (Есарев) + Original (Eng) + Sub (Eng) 90ytr90
3 | 0

0 | 218

4

09.08.2016 17:09


Яндекс.Метрика powered by Sphinx


В Н И М А Н И Е
Сайт не распространяет и не хранит электронные версии произведений, а лишь бесплатно и без коммерческой выгоды (не требуя взамен платы,
SMS и т.д.) предоставляет доступ к создаваемому пользователями каталогу ссылок на торрент-файлы, которые содержат только списки хеш-сумм.
Убедительная просьба с жалобами обращаться напрямую к пользователю, разместившему торрент файл.

Вверх