Loading...
Error

Сокровище нации / National Treasure (Джон Тёртелтауб / Jon Turteltaub) [2004 г., боевик, триллер, детектив, приключения, BDRip] Dub HQ Underverse

Статистика раздачи
Размер:  2,18 GB   |    Зарегистрирован:  9 месяцев   |    Скачан:  9 раз
Сидов:  3  |  0 KB/s  ]   Личеров:  0  |  0 KB/s  ]

* - сиды/пиры с внешних источников

   
 
Автор Сообщение

HQ Underverse 

01-Мар-2016 19:36

Сокровище нации / National Treasure


Год выпуска: 2004
Жанр: боевик, триллер, детектив, приключения
Страна: США
Режиссер: Джон Тёртелтауб / Jon Turteltaub
В ролях: Николас Кейдж, Дайан Крюгер, Джастин Барта, Шон Бин, Джон Войт, Харви Кейтель, Кристофер Пламмер, Дэвид Дайан Фишер, Стюарт Финлэй-МакЛеннан, Олег Тактаров
Сюжет фильма:
Современные охотники за сокровищами во главе с Беном Франклином Гейтсом узнают старинную легенду о сокровище, спрятанном еще отцами-основателями американского государства Джорджем Вашингтоном, Бенджамином Франклином и Томасом Джефферсоном.

Узнать тайну клада можно с помощью Декларации Независимости США, в которой зашифрована разгадка. Но помимо разгадывания изощренной головоломки, нашим героям предстоит сразиться с любителями легкой наживы, жаждущим погреть руки на достоянии республики…

  • Мировая премьера: 8 ноября 2004
  • Российская премьера: 30 декабря 2004

/
Качество видео: BDRip

Продолжительность: 02:11:04
Формат: avi
Видео: XviD, 720x304, 1921 kbps
Аудио: русский, дублированный [лицензия], AC3 5.1, 448 kbps

Семпл: http://multi-up.com/1091390

Релиз группы: + дорожку подогнал undre19

Код:

General
Complete name                    : D:\Video\Movies\Releases\National.Treasure.2004.BDRip.XviD.AC3.Rus.D.HQ.Underverse.avi
Format                           : AVI
Format/Info                      : Audio Video Interleave
Format profile                   : OpenDML
File size                        : 2.18 GiB
Duration                         : 2h 11mn
Overall bit rate                 : 2 382 Kbps
Writing application              : VirtualDubMod 1.5.10.3 | www.virtualdub-fr.org || (build 2550/release)
Writing library                  : VirtualDubMod build 2550/release

Video
ID                               : 0
Format                           : MPEG-4 Visual
Format profile                   : Streaming Video@L1
Format settings, BVOP            : Yes
Format settings, QPel            : No
Format settings, GMC             : No warppoints
Format settings, Matrix          : Custom
Codec ID                         : XVID
Codec ID/Hint                    : XviD
Duration                         : 2h 11mn
Bit rate                         : 1 922 Kbps
Width                            : 720 pixels
Height                           : 304 pixels
Display aspect ratio             : 2.35
Frame rate                       : 23.976 fps
Resolution                       : 24 bits
Colorimetry                      : 4:2:0
Scan type                        : Progressive
Bits/(Pixel*Frame)               : 0.366
Stream size                      : 1.76 GiB (81%)
Writing library                  : XviD 66

Audio
ID                               : 1
Format                           : AC-3
Format/Info                      : Audio Coding 3
Codec ID                         : 2000
Duration                         : 2h 11mn
Bit rate mode                    : Constant
Bit rate                         : 448 Kbps
Channel(s)                       : 6 channels
Channel positions                : Front: L C R, Surround: L R, LFE
Sampling rate                    : 48.0 KHz
Stream size                      : 420 MiB (19%)
Alignment                        : Split accross interleaves
Interleave, duration             : 42 ms (1.00 video frame)
Interleave, preload duration     : 500 ms
Title                            : Rus Dub

picpicpicpic
Для увеличения картинки щелкните мышкой по превью

Этот торрент недоступен для скачивания без регистрации, однако доступен по публичной magnet-ссылке (источники с публичных трекеров). Перед использованием ссылки прочтите, пожалуйста Пользовательское соглашение, а также как можно дольше оставайтесь на раздаче! Для того, чтобы скачать сам торрент-файл (который видит больше источников), а также для того, чтобы поблагодарить релизера, вам необходимо зарегистрироваться. Если регистрироваться лень - вы можете также попробовать скачать релиз по нашим партнерским ссылкам ниже.

[underverse.su].t63782.torrent
Трекер: Зарегистрирован   [ 01.03.2016 19:36 ]  

Статус: проверено (by HQ Underverse at 01.03.2016 19:50)
Поблагодарили: 1 человек
Тип торрента: публичный - доступные источники с открытых трекеров: 
Размер: 2,18 GB (занимает 1/2 DVDR, для записи нужно 1 болванка DVDR/RW)
 
 
Похожие темы
Форум Тема Автор Торрент Отв. Посл. сооб.
Зарубежное кино [DVDRip, Low-Res HDRip, и т.д.] Сокровище нации / National Treasure (Джон Тёртелтауб) [2004 г., боевик, триллер, приключения, DVDRip] Flash
0 | 0

7 | 1630

2

02.12.2010 09:17

Зарубежное кино HQ Сокровище нации: Книга Тайн / National Treasure: Book of Secrets (Джон Тёртелтауб / Jon Turteltaub) [2007 г., боевик, триллер, детектив, приключения, BDRip] Dub HQ Underverse HQ Underverse
1 | 0

0 | 810

8

12.04.2016 12:08

Зарубежное кино [HDDVDRip / BDRip / WEB-DL / HDTV 1080/720р] Сокровище нации: Дилогия / National Treasure: Dilogy (Джон Тёртелтауб) [2004, 2007 г., Боевик, Детектив, Приключения, Триллер, BDRip 1080p] MVO + Original + Subs mentic77
3 | 2

1 | 599

23

10.10.2015 23:44

Архив Сокровище нации : Книга Тайн / National Treasure : Book of Secrets (Джон Туртелтауб) [2007 г., Боевик / Приключения, DVDRip] Night wolf
0 | 0

14 | 1962

1

17.02.2011 14:46

Архив Сокровище Амазонки / The Rundown (Питер Берг) [2003 г., боевик, триллер, комедия, приключения, ] floatrx
0 | 0

4 | 830

10

29.08.2010 23:52


Яндекс.Метрика powered by Sphinx


В Н И М А Н И Е
Сайт не распространяет и не хранит электронные версии произведений, а лишь бесплатно и без коммерческой выгоды (не требуя взамен платы,
SMS и т.д.) предоставляет доступ к создаваемому пользователями каталогу ссылок на торрент-файлы, которые содержат только списки хеш-сумм.
Убедительная просьба с жалобами обращаться напрямую к пользователю, разместившему торрент файл.

Вверх