Loading...
Error

Шкала времени. Эхнатон и Нефертити. Правящие боги Египта / Time Watch. Akhenaten and Nefertiti. The Royal Gods of Egypt [2002 г., документальный, египтология, история, археология, SatRip] DVO

Статистика раздачи
Размер:  571 MB   |    Зарегистрирован:  9 месяцев   |    Скачан:  6 раз

Полного источника не было: 8 месяцев

Сидов:  0  |  0 KB/s  ]   Личеров:  0  |  0 KB/s  ]

* - сиды/пиры с внешних источников

   
 
Автор Сообщение

ARI71 Пол:Муж

29-Фев-2016 12:05

Шкала времени. Эхнатон и Нефертити. Правящие боги Египта / Time Watch. Akhenaten and Nefertiti. The Royal Gods of Egypt


Год выпуска: 2002
Жанр: документальный, египтология, история, археология
Страна: Великобритания , США , BBC, History Channel
Режиссер: BBC
Сюжет фильма:
Жизнь Эхнатона – фараона-реформатора, о которой так много было сказано, но загадок осталось не меньше, на протяжении многих десятков лет увлекает и притягивает своей неизвестностью всех, кто интересуется историей Древнего Египта. Эхнатон, ранее - Аменхотеп IV, десятый фараон XVIII династии, сын Аменхотепа III и царицы Тии - выдающийся политик, знаменитый религиозный реформатор, во время правления которого произошли значительные изменения в политике и религии Египта. Эхнатон знаменит тем, что за свою недолгую жизнь осуществил религиозную реформу, подойдя к утверждению единобожия. Женой Эхнатона была красавица Нефертити, его двоюродная сестра. Нефертити обладала огромной властью и полномочиями, она играла исключительно важную роль в религиозной жизни Египта того времени, сопровождая супруга во время жертвоприношений, священнодействий и религиозных празднеств. Она была живым воплощением животворящей силы Солнца, дарующей жизнь. В храмах бога Атона в Фивах ей возносили молитвы, ни одно из храмовых действ не могло происходить без нее, залога плодородия и процветания всей страны.
Качество видео: SatRip

Продолжительность: 00:48:45
Формат: AVI
Видео: XviD, 704x400, ~1498 kbps
Аудио: русский, двухголосый [профессиональный], MP3 2.0, ~128.00 kbps

Код:

Общее
Полное имя : D:\Эхнатон и Нефертити. Правящие боги Египта.2002.XviD.SATRip.DaVinci.avi
Формат : AVI
Формат/Информация : Audio Video Interleave
Размер файла : 571 Мбайт
Продолжительность : 48 м.
Общий поток : 1636 Кбит/сек
Библиотека кодирования : VirtualDub build 35390/release

Видео
Идентификатор : 0
Формат : MPEG-4 Visual
Профиль формата : Advanced Simple@L5
Параметр BVOP формата : 2
Параметр QPel формата : Нет
Параметр GMC формата : Без точки перехода
Параметр матрицы формата : Default (H.263)
Режим смешивания : Сжатый битовый поток
Идентификатор кодека : XVID
Идентификатор кодека/Подсказка : XviD
Продолжительность : 48 м.
Битрейт : 1499 Кбит/сек
Ширина : 704 пикселя
Высота : 400 пикселей
Соотношение сторон : 16:9
Частота кадров : 25,000 кадров/сек
Цветовое пространство : YUV
Субдискретизация насыщенности : 4:2:0
Битовая глубина : 8 бит
Тип развёртки : Прогрессивная
Метод сжатия : С потерями
Бит/(Пиксели*Кадры) : 0.213
Размер потока : 523 Мбайт (92%)
Библиотека кодирования : XviD 1.2.1 (UTC 2008-12-04)

Аудио
Идентификатор : 1
Формат : MPEG Audio
Версия формата : Version 1
Профиль формата : Layer 3
Режим : Joint stereo
Расширение режима : MS Stereo
Идентификатор кодека : 55
Идентификатор кодека/Подсказка : MP3
Продолжительность : 48 м.
Вид битрейта : Постоянный
Битрейт : 128 Кбит/сек
Каналы : 2 канала
Частота : 48,0 КГц
Метод сжатия : С потерями
Размер потока : 44,6 Мбайт (8%)
Выравнивание : Разделение по промежуткам
Продолжительность промежутка : 40 мс. (1,00 видеокадр)
Время предзагрузки промежутка : 500 мс.
Релиз группы:

picpicpicpicpicpic
Для увеличения картинки щелкните мышкой по превью

Этот торрент недоступен для скачивания без регистрации, однако доступен по публичной magnet-ссылке (источники с публичных трекеров). Перед использованием ссылки прочтите, пожалуйста Пользовательское соглашение, а также как можно дольше оставайтесь на раздаче! Для того, чтобы скачать сам торрент-файл (который видит больше источников), а также для того, чтобы поблагодарить релизера, вам необходимо зарегистрироваться. Если регистрироваться лень - вы можете также попробовать скачать релиз по нашим партнерским ссылкам ниже.

[underverse.su].t63744.torrent
Трекер: Зарегистрирован   [ 29.02.2016 12:05 ]  

Статус: проверено (by makkol at 29.02.2016 15:05)
Поблагодарили: пока никто не поблагодарил...
Тип торрента: публичный - доступные источники с открытых трекеров: 
Размер: 571 MB (занимает 0,13 DVDR, для записи нужно 1 болванка DVDR/RW)
 
 
Похожие темы
Форум Тема Автор Торрент Отв. Посл. сооб.
BBC Шкала времени. Тайна обезглавленных римлян / Time Watch. The Mystery Of The Headless Romans (Ян Поттс) [2006 г., документальный, археология, исследование, история, SatRip] DVO ARI71
0 | 0

0 | 538

2

22.08.2016 10:47

ARI71 Пол:Муж

29-Фев-2016 12:11

Просьба к скачавшим: пожалуйста оставайтесь как можно дольше на раздаче. Это даёт возможность релизёру создавать для вас новые релизы!


Яндекс.Метрика powered by Sphinx


В Н И М А Н И Е
Сайт не распространяет и не хранит электронные версии произведений, а лишь бесплатно и без коммерческой выгоды (не требуя взамен платы,
SMS и т.д.) предоставляет доступ к создаваемому пользователями каталогу ссылок на торрент-файлы, которые содержат только списки хеш-сумм.
Убедительная просьба с жалобами обращаться напрямую к пользователю, разместившему торрент файл.

Вверх