Loading...
Error

По следам ирбиса [2011 г., документальный, природа, научно-познавательный, SatRip]

Статистика раздачи
Размер:  299 MB   |    Зарегистрирован:  9 месяцев   |    Скачан:  2 раза

Полного источника не было: 2 месяца 22 дня

Сидов:  0  |  0 KB/s  ]   Личеров:  0  |  0 KB/s  ]

* - сиды/пиры с внешних источников

   
 
Автор Сообщение

ARI71 Пол:Муж

29-Фев-2016 11:07

По следам ирбиса


Год выпуска: 2011
Жанр: документальный, природа, научно-познавательный
Страна: Россия, Русское географическое общество
Режиссер: Виктор Гундарев
Сюжет фильма:
Уникальные кадры ирбиса в естественной среде. Исследования показали, что в России осталось не более сорока этих красивейших кошек.
Качество видео: SatRip

Продолжительность: 00:19:25
Формат: AVI
Видео: XviD, 720x400, ~1946 kbps
Аудио: русский, оригинал, AC3 2.0, ~192.00 kbps

Код:

Общее
Полное имя : D:\Po.sledam.irgisa.2011.SATRip.[Один 777].avi
Формат : AVI
Формат/Информация : Audio Video Interleave
Размер файла : 299 Мбайт
Продолжительность : 19 м.
Общий поток : 2149 Кбит/сек
Программа кодирования : VirtualDubMod 1.5.10.3 | www.virtualdub-fr.org || (build 2550/release)
Библиотека кодирования : VirtualDubMod build 2550/release

Видео
Идентификатор : 0
Формат : MPEG-4 Visual
Профиль формата : Advanced Simple@L5
Параметр BVOP формата : 1
Параметр QPel формата : Нет
Параметр GMC формата : Без точки перехода
Параметр матрицы формата : Default (H.263)
Идентификатор кодека : XVID
Идентификатор кодека/Подсказка : XviD
Продолжительность : 19 м.
Битрейт : 1947 Кбит/сек
Ширина : 720 пикселей
Высота : 400 пикселей
Соотношение сторон : 16:9
Частота кадров : 25,000 кадров/сек
Цветовое пространство : YUV
Субдискретизация насыщенности : 4:2:0
Битовая глубина : 8 бит
Тип развёртки : Прогрессивная
Метод сжатия : С потерями
Бит/(Пиксели*Кадры) : 0.270
Размер потока : 271 Мбайт (91%)
Библиотека кодирования : XviD 73

Аудио
Идентификатор : 1
Формат : AC-3
Формат/Информация : Audio Coding 3
Расширение режима : CM (complete main)
Параметр Endianness формата : Big
Идентификатор кодека : 2000
Продолжительность : 19 м.
Вид битрейта : Постоянный
Битрейт : 192 Кбит/сек
Каналы : 2 канала
Расположение каналов : Front: L R
Частота : 48,0 КГц
Метод сжатия : С потерями
Размер потока : 26,7 Мбайт (9%)
Выравнивание : Разделение по промежуткам
Продолжительность промежутка : 40 мс. (1,00 видеокадр)
Время предзагрузки промежутка : 500 мс.
picpicpicpicpicpic
Для увеличения картинки щелкните мышкой по превью

Этот торрент недоступен для скачивания без регистрации, однако доступен по публичной magnet-ссылке (источники с публичных трекеров). Перед использованием ссылки прочтите, пожалуйста Пользовательское соглашение, а также как можно дольше оставайтесь на раздаче! Для того, чтобы скачать сам торрент-файл (который видит больше источников), а также для того, чтобы поблагодарить релизера, вам необходимо зарегистрироваться. Если регистрироваться лень - вы можете также попробовать скачать релиз по нашим партнерским ссылкам ниже.

[underverse.su].t63742.torrent
Трекер: Зарегистрирован   [ 29.02.2016 11:07 ]  

Статус: проверено (by makkol at 29.02.2016 15:05)
Поблагодарили: 1 человек
Тип торрента: публичный - доступные источники с открытых трекеров: 
Размер: 299 MB (занимает 0,07 DVDR, для записи нужно 1 болванка DVDR/RW)
 
 
Похожие темы
Форум Тема Автор Торрент Отв. Посл. сооб.
Зарубежное кино [DVDRip, Low-Res HDRip, и т.д.] По следам призраков / Ghosthunters (Тео Пирри) [2016 г., ужасы, WEB-DLRip] MVO makkol
148 | 5

0 | 237

13

12.07.2016 11:51

National Geographic По следам мифических чудовищ: Кошмар в амазонии [2010 г., документальный, SatRip] матроскин
0 | 0

2 | 1215

14

01.05.2013 20:48


Яндекс.Метрика powered by Sphinx


В Н И М А Н И Е
Сайт не распространяет и не хранит электронные версии произведений, а лишь бесплатно и без коммерческой выгоды (не требуя взамен платы,
SMS и т.д.) предоставляет доступ к создаваемому пользователями каталогу ссылок на торрент-файлы, которые содержат только списки хеш-сумм.
Убедительная просьба с жалобами обращаться напрямую к пользователю, разместившему торрент файл.

Вверх