Loading...
Error

Проклятие ведьминого дерева / Curse of the Witching Tree (Джеймс Кроу) [2015 г., ужасы, DVDRip] DVO

Статистика раздачи
Размер:  1,38 GB   |    Зарегистрирован:  9 месяцев   |    Скачан:  28 раз

Полного источника не было: 2 часа 39 минут

Сидов:  0  |  0 KB/s  ]   Личеров:  0  |  0 KB/s  ]

* - сиды/пиры с внешних источников

   
 
Автор Сообщение

makkol Пол:Муж

28-Фев-2016 23:37

Проклятие ведьминого дерева / Curse of the Witching Tree


Год выпуска: 2015
Жанр: ужасы
Производство: Великобритания [Last British Dragon, Picture Perfect]
Режиссер: Джеймс Кроу
В ролях: Сара Роуз Дентон, Люси Джейн Клэрвис, Лоренс Веллер, Чарли Бонд, Вив Бонни, Кэролайн Болтон, Даниэль Бакс, Роб Бирн, Джон Кэмплинг
Сюжет фильма:
Семья переезжает на новую ферму, где, по слухам, жила ведьма, убившая собственного сына и еще 9 детей. В то время как отец семейства лежит в коме, а жена и дети надеются на его возвращение к ним, в доме начинает пробуждаться древнее зло, потревоженное шуточным спиритическим сеансом, который провели хулиганы в том самом сарае, где ведьма совершала свои страшные злодеяния...

  • Мировая премьера: 18 мая 2015


Качество видео: DVDRip

Продолжительность: 01:42:37
Формат: AVI
Видео: XviD, 720x304 (2.35:1), 23.976 fps, 1727 kbps
Аудио: русский, любительский двухголосый закадровый (den904&DeadSno), AC3 2.0, 48 kHz, 192 kbps

Код:

Формат                                   : AVI
Формат/Информация                        : Audio Video Interleave
Размер файла                             : 1,38 Гбайт
Продолжительность                        : 1 ч. 42 м.
Общий поток                              : 1928 Кбит/сек
Программа кодирования                    : VirtualDubMod 1.5.10.3 (build 2550/release)
Библиотека кодирования                   : VirtualDubMod build 2550/release

Видео
Идентификатор                            : 0
Формат                                   : MPEG-4 Visual
Профиль формата                          : Advanced Simple@L5
Параметр BVOP формата                    : 2
Параметр QPel формата                    : Нет
Параметр GMC формата                     : Без точки перехода
Параметр матрицы формата                 : Default (H.263)
Режим смешивания                         : Сжатый битовый поток
Идентификатор кодека                     : XVID
Идентификатор кодека/Подсказка           : XviD
Продолжительность                        : 1 ч. 42 м.
Битрейт                                  : 1727 Кбит/сек
Ширина                                   : 720 пикселей
Высота                                   : 304 пикселя
Соотношение сторон                       : 2,35:1
Частота кадров                           : 23,976 кадра/сек
Цветовое пространство                    : YUV
Субдискретизация насыщенности            : 4:2:0
Битовая глубина                          : 8 бит
Тип развёртки                            : Прогрессивная
Метод сжатия                             : С потерями
Бит/(Пиксели*Кадры)                      : 0.329
Размер потока                            : 1,24 Гбайт (90%)
Библиотека кодирования                   : XviD 73

Аудио
Идентификатор                            : 1
Формат                                   : AC-3
Формат/Информация                        : Audio Coding 3
Расширение режима                        : CM (complete main)
Параметр Endianness формата              : Big
Идентификатор кодека                     : 2000
Продолжительность                        : 1 ч. 42 м.
Вид битрейта                             : Постоянный
Битрейт                                  : 192 Кбит/сек
Каналы                                   : 2 канала
Расположение каналов                     : Front: L R
Частота                                  : 48,0 КГц
Метод сжатия                             : С потерями
Размер потока                            : 141 Мбайт (10%)
Выравнивание                             : Разделение по промежуткам
Продолжительность промежутка             : 42  мс. (1,00 видеокадр)
Время предзагрузки промежутка            : 500  мс.
picpicpicpicpic
Для увеличения картинки щелкните мышкой по превью

Этот торрент недоступен для скачивания без регистрации, однако доступен по публичной magnet-ссылке (источники с публичных трекеров). Перед использованием ссылки прочтите, пожалуйста Пользовательское соглашение, а также как можно дольше оставайтесь на раздаче! Для того, чтобы скачать сам торрент-файл (который видит больше источников), а также для того, чтобы поблагодарить релизера, вам необходимо зарегистрироваться. Если регистрироваться лень - вы можете также попробовать скачать релиз по нашим партнерским ссылкам ниже.

[underverse.su].t63737.torrent
Трекер: Зарегистрирован   [ 28.02.2016 23:37 ]  

Статус: проверено (by makkol at 01.03.2016 23:19)
Поблагодарили: 2 человека
Тип торрента: публичный - доступные источники с открытых трекеров: 
Размер: 1,38 GB (занимает 0,32 DVDR, для записи нужно 1 болванка DVDR/RW)
 
 
Похожие темы
Форум Тема Автор Торрент Отв. Посл. сооб.
Зарубежное кино [DVDRip, Low-Res HDRip, и т.д.] Проклятие моей матери / The Guilt Trip (Энн Флетчер) [2012 г., комедия, HDRip] DVO (Петя и Ко) 90ytr90
1 | 0

0 | 723

16

28.04.2013 18:01

Зарубежное кино [DVDRip, Low-Res HDRip, и т.д.] Проклятие моей матери / The Guilt Trip (Энн Флетчер / Anne Fletcher) [2012 г., комедия, HDRip] MVO 90ytr90
10 | 0

0 | 1384

54

08.08.2013 17:50

Зарубежное кино [DVDRip, Low-Res HDRip, и т.д.] Проклятие Чаки / Curse of Chucky (Дон Манчини / Don Mancini) [2013 г., ужасы, триллер, WEB-DLRip] [UNRATED] VO (Xixidok) + Original 90ytr90
0 | 0

0 | 1176

4

28.09.2013 16:31

Зарубежное кино [DVDRip, Low-Res HDRip, и т.д.] Проклятие Чаки / Curse of Chucky (Дон Манчини) [2013 г., триллер, ужасы, HDRip] [UNRATED] MVO (BaibaKo) 90ytr90
5 | 0

0 | 1268

23

03.10.2013 14:46

Зарубежное кино [DVDRip, Low-Res HDRip, и т.д.] Проклятие Чаки / Curse of Chucky (Дон Манчини / Don Mancini) [2013 г., триллер, ужасы, BDRip] [UNRATED] Dub 90ytr90
33 | 0

0 | 791

3

10.06.2014 05:56

Зарубежное кино [DVDRip, Low-Res HDRip, и т.д.] Проклятие Аннабель / Annabelle (Джон Р. Леонетти / John R. Leonetti) [2014 г., ужасы, BDRip] Dub 90ytr90
1 | 0

0 | 318

4

04.02.2015 06:08

Зарубежное кино [DVDRip, Low-Res HDRip, и т.д.] Проклятие Аннабель / Annabelle (Джон Р. Леонетти / John R. Leonetti) [2014 г., ужасы, HDRip] Dub + Ukr + Original (Eng) 90ytr90
24 | 2

0 | 316

4

04.02.2015 17:44

Зарубежное кино [DVDRip, Low-Res HDRip, и т.д.] Проклятие Аннабель / Annabelle (Джон Р. Леонетти / John R. Leonetti) [2014 г., ужасы, BDRip-AVC] Dub + Original (Eng) + Subs 90ytr90
21 | 0

0 | 322

9

04.02.2015 20:03

Зарубежное кино [DVDRip, Low-Res HDRip, и т.д.] Проклятие Аннабель / Annabelle (Джон Р. Леонетти / John R. Leonetti) [2014 г., ужасы, HDRip] Dub 90ytr90
14 | 0

0 | 445

2

17.02.2015 05:56

T Зарубежное кино [DVDRip, Low-Res HDRip, и т.д.] Проклятие Спящей красавицы / The Curse of Sleeping Beauty (Тео Пирри) [2016 г., фэнтези, триллер, детектив, WEB-DLRip] Dub (Line) makkol
436 | 11

0 | 600

16

20.08.2016 12:14


Яндекс.Метрика powered by Sphinx


В Н И М А Н И Е
Сайт не распространяет и не хранит электронные версии произведений, а лишь бесплатно и без коммерческой выгоды (не требуя взамен платы,
SMS и т.д.) предоставляет доступ к создаваемому пользователями каталогу ссылок на торрент-файлы, которые содержат только списки хеш-сумм.
Убедительная просьба с жалобами обращаться напрямую к пользователю, разместившему торрент файл.

Вверх