Loading...
Error

Ставка на любовь (Артем Михалков) [2016 г., комедия, мелодрама, WEB-DLRip]

Статистика раздачи
Размер:  1,37 GB   |    Зарегистрирован:  9 месяцев   |    Скачан:  45 раз

Полного источника не было: 12 дней

Сидов:  0  |  0 KB/s  ]   Личеров:  0  |  0 KB/s  ]

* - сиды/пиры с внешних источников

   
 
Автор Сообщение

makkol Пол:Муж

28-Фев-2016 22:10

Ставка на любовь


Год выпуска: 2016
Жанр: комедия, мелодрама
Производство: Россия [Yellow, Black & White, Кинокомпания «Небо»]
Режиссер: Артем Михалков
В ролях: Ованнес Азоян, Андрей Бурковский, Катерина Шпица, Ян Цапник, Вадим Андреев, Ольга Тумайкина, Александр Ревва, Дмитрий Хрусталев, Ирина Чипиженко, Алла Михеева
Сюжет фильма:
Костя и Давид — друзья детства, и вот спустя годы им, наконец, суждено проверить дружбу на прочность. Давид собирается сделать предложение своей возлюбленной, Анне, а Костя хочет выйти в финал международного чемпионата по покеру. Два, казалось бы, совершенно несвязанных события, становятся решающими в жизни друзей, так как Давиду придется играть в покер, а Косте — спасать свадьбу друга! Смогут ли они оставаться собой и спасти положение, поменявшись местами?

  • Российская премьера: 11 февраля 2016


Качество видео: WEB-DLRip

Продолжительность: 01:32:01
Формат: AVI
Видео: XviD, 720x304 (2.35:1), 24.000 fps, 1731 kbps
Аудио: русский, оригинал (iTunes), AC3 5.1, 48 kHz, 384 kbps

Код:

Формат                                   : AVI
Формат/Информация                        : Audio Video Interleave
Размер файла                             : 1,37 Гбайт
Продолжительность                        : 1 ч. 32 м.
Общий поток                              : 2124 Кбит/сек
Программа кодирования                    : VirtualDubMod 1.5.10.3 || (build 2550/release)
Библиотека кодирования                   : VirtualDubMod build 2550/release

Видео
Идентификатор                            : 0
Формат                                   : MPEG-4 Visual
Профиль формата                          : Advanced Simple@L5
Параметр BVOP формата                    : 2
Параметр QPel формата                    : Нет
Параметр GMC формата                     : Без точки перехода
Параметр матрицы формата                 : Default (MPEG)
Идентификатор кодека                     : XVID
Идентификатор кодека/Подсказка           : XviD
Продолжительность                        : 1 ч. 32 м.
Битрейт                                  : 1731 Кбит/сек
Ширина                                   : 720 пикселей
Высота                                   : 304 пикселя
Соотношение сторон                       : 2,35:1
Частота кадров                           : 24,000 кадра/сек
Цветовое пространство                    : YUV
Субдискретизация насыщенности            : 4:2:0
Битовая глубина                          : 8 бит
Тип развёртки                            : Прогрессивная
Метод сжатия                             : С потерями
Бит/(Пиксели*Кадры)                      : 0.329
Размер потока                            : 1,11 Гбайт (81%)
Библиотека кодирования                   : XviD 1.2.1 (UTC 2008-12-04)

Аудио
Идентификатор                            : 1
Формат                                   : AC-3
Формат/Информация                        : Audio Coding 3
Расширение режима                        : CM (complete main)
Параметр Endianness формата              : Big
Идентификатор кодека                     : 2000
Продолжительность                        : 1 ч. 32 м.
Вид битрейта                             : Постоянный
Битрейт                                  : 384 Кбит/сек
Каналы                                   : 6 каналов
Расположение каналов                     : Front: L C R, Side: L R, LFE
Частота                                  : 48,0 КГц
Частота кадров                           : 31,250 кадров/сек (1536 spf)
Метод сжатия                             : С потерями
Размер потока                            : 253 Мбайт (18%)
Выравнивание                             : Разделение по промежуткам
Продолжительность промежутка             : 42  мс. (1,00 видеокадр)
Время предзагрузки промежутка            : 500  мс.
Релиз без рекламы!


picpicpicpicpic
Для увеличения картинки щелкните мышкой по превью

Этот торрент недоступен для скачивания без регистрации, однако доступен по публичной magnet-ссылке (источники с публичных трекеров). Перед использованием ссылки прочтите, пожалуйста Пользовательское соглашение, а также как можно дольше оставайтесь на раздаче! Для того, чтобы скачать сам торрент-файл (который видит больше источников), а также для того, чтобы поблагодарить релизера, вам необходимо зарегистрироваться. Если регистрироваться лень - вы можете также попробовать скачать релиз по нашим партнерским ссылкам ниже.

[underverse.su].t63733.torrent
Трекер: Зарегистрирован   [ 28.02.2016 22:10 ]  

Статус: T временная (by makkol at 01.03.2016 23:16)
Поблагодарили: 1 человек
Тип торрента: публичный - доступные источники с открытых трекеров: 
Размер: 1,37 GB (занимает 0,31 DVDR, для записи нужно 1 болванка DVDR/RW)
 
 
Похожие темы
Форум Тема Автор Торрент Отв. Посл. сооб.
T Наше кино [DVDRip, Low-Res HDRip, и т.д.] Ставка на любовь (Артем Михалков) [2015 г., комедия, мелодрама, WEB-DLRip-AVC] Original (iTunes) 90ytr90
12 | 0

0 | 796

26

29.02.2016 16:19

T Наше кино [HDDVDRip / BDRip / WEB-DL / HDTV 1080/720р] Ставка на любовь (Артем Михалков) [2016 г., комедия, мелодрама, WEB-DL 720p] makkol
34 | 0

0 | 592

14

28.02.2016 22:23

T Наше кино [HDDVDRip / BDRip / WEB-DL / HDTV 1080/720р] Ставка на любовь (Артем Михалков) [2016 г., комедия, мелодрама, WEB-DL 1080p] makkol
17 | 0

0 | 791

26

28.02.2016 22:35


Яндекс.Метрика powered by Sphinx


В Н И М А Н И Е
Сайт не распространяет и не хранит электронные версии произведений, а лишь бесплатно и без коммерческой выгоды (не требуя взамен платы,
SMS и т.д.) предоставляет доступ к создаваемому пользователями каталогу ссылок на торрент-файлы, которые содержат только списки хеш-сумм.
Убедительная просьба с жалобами обращаться напрямую к пользователю, разместившему торрент файл.

Вверх