Loading...
Error

Дикая природа Нидерландов / De Nieuwe Wildernis (1-3 серии из 3) [2013 г., документальный, флора, фауна, SatRip] VO

Статистика раздачи
Размер:  1,46 GB   |    Зарегистрирован:  9 месяцев   |    Скачан:  5 раз

Полного источника не было: 1 месяц 17 дней

Сидов:  0  |  0 KB/s  ]   Личеров:  0  |  0 KB/s  ]

* - сиды/пиры с внешних источников

   
 
Автор Сообщение

ARI71 Пол:Муж

28-Фев-2016 17:20

Дикая природа Нидерландов / De Nieuwe Wildernis


Год выпуска: 2013
Жанр: документальный, флора, фауна
Страна: Нидерланды
Режиссер: Марк Веркерк
Сюжет фильма:
Программа рассказывает о нидерландском природном заповеднике Оствардерсплассе, животный мир которого представлен во всем богатстве и великолепии. Заповедник расположен всего лишь в 30 км от Амстердама. Однако там можно встретить самых близких родственников вымерших тарпанов, диких лошадей, и туров – польских коников. Просторы заповедника также рассекают благородные олени и быки Хека. За последние 40 лет этот край приютил самых редких птиц Европы, таких как, например, удивительные орланы-белохвосты.
Качество видео: SatRip

Продолжительность: 3 х ~00:50:00
Формат: AVI
Видео: XviD, 704x352, ~1204 kbps
Аудио: русский, одноголосый закадровый [профессиональный] "SDI Media Russia" Юрий Большаков, AC3 2.0, ~192.00 kbps
(тех. данные всех серий идентичны)
01. Весна - новая жизнь / Lente nieuw leven
02. Лето - пора взрослеть / Zomer op eigen benen
03. Выживание осенью и зимой / Herfst / Winter oferleven

Код:

Общее
Полное имя : D:\Dikaja.priroda.Niderlandov.2013.SATRip.[Один 777]\01.Vesna-novaja.gyzn'.avi
Формат : AVI
Формат/Информация : Audio Video Interleave
Размер файла : 500 Мбайт
Продолжительность : 49 м.
Общий поток : 1406 Кбит/сек
Программа кодирования : VirtualDubMod 1.5.10.3 | www.virtualdub-fr.org || (build 2550/release)
Библиотека кодирования : VirtualDubMod build 2550/release

Видео
Идентификатор : 0
Формат : MPEG-4 Visual
Профиль формата : Advanced Simple@L5
Параметр BVOP формата : 1
Параметр QPel формата : Нет
Параметр GMC формата : Без точки перехода
Параметр матрицы формата : Default (H.263)
Идентификатор кодека : XVID
Идентификатор кодека/Подсказка : XviD
Продолжительность : 49 м.
Битрейт : 1204 Кбит/сек
Ширина : 704 пикселя
Высота : 352 пикселя
Соотношение сторон : 2,000
Частота кадров : 25,000 кадров/сек
Цветовое пространство : YUV
Субдискретизация насыщенности : 4:2:0
Битовая глубина : 8 бит
Тип развёртки : Прогрессивная
Метод сжатия : С потерями
Бит/(Пиксели*Кадры) : 0.194
Размер потока : 428 Мбайт (86%)
Библиотека кодирования : XviD 73

Аудио
Идентификатор : 1
Формат : AC-3
Формат/Информация : Audio Coding 3
Расширение режима : CM (complete main)
Параметр Endianness формата : Big
Идентификатор кодека : 2000
Продолжительность : 49 м.
Вид битрейта : Постоянный
Битрейт : 192 Кбит/сек
Каналы : 2 канала
Расположение каналов : Front: L R
Частота : 48,0 КГц
Метод сжатия : С потерями
Размер потока : 68,2 Мбайт (14%)
Выравнивание : Разделение по промежуткам
Продолжительность промежутка : 40 мс. (1,00 видеокадр)
Время предзагрузки промежутка : 500 мс.
picpicpicpicpicpic
Для увеличения картинки щелкните мышкой по превью

Этот торрент недоступен для скачивания без регистрации, однако доступен по публичной magnet-ссылке (источники с публичных трекеров). Перед использованием ссылки прочтите, пожалуйста Пользовательское соглашение, а также как можно дольше оставайтесь на раздаче! Для того, чтобы скачать сам торрент-файл (который видит больше источников), а также для того, чтобы поблагодарить релизера, вам необходимо зарегистрироваться. Если регистрироваться лень - вы можете также попробовать скачать релиз по нашим партнерским ссылкам ниже.

[underverse.su].t63726.torrent
Трекер: Зарегистрирован   [ 28.02.2016 17:20 ]  

Статус: проверено (by makkol at 28.02.2016 21:51)
Поблагодарили: 1 человек
Тип торрента: публичный - доступные источники с открытых трекеров: 
Размер: 1,46 GB (занимает 0,33 DVDR, для записи нужно 1 болванка DVDR/RW)
 
 
Похожие темы
Форум Тема Автор Торрент Отв. Посл. сооб.
National Geographic Дикая природа Таиланда / Wild Thailand (2 серии из 2) / (Канит Прукпракарн, Петер Ринггаард) [2013 г., документальный, познавательный, фауна, флора, HDTV 1080i] Dub + VO (Ukr) + Original (Eng) ARI71
1 | 0

1 | 484

6

24.09.2016 21:34

Научно-популярные фильмы Дикая природа и времена года / A Year in the Wild (1-5 серии из 5) [2014 г., документальный, природа, флора, фауна, SatRip] Dub ARI71
1 | 0

0 | 770

16

04.04.2016 08:03

Научно-популярные фильмы Дикая природа Нидерландов / De Nieuwe Wildernis (1-3 серии из 3) / (Рубен Смит, Марк Веркерк) [2013 г., документальный, флора, фауна, HDTVRip 720p] VO + Original (Eng) ARI71
2 | 2

0 | 419

1

06.07.2016 16:03

Документальное кино [DVD / HDDVD / BD / Remux] Дикая природа России / Россия от края до края / Wild Russia (Тобиас Менле / Tobias Mennle, Иво Неренберг / Ivo Norenberg) [2009, Документальный, живая природа, BD-Remux 1080i] (1-6 серий из 6) uzi2009
3 | 0

0 | 911

3

09.05.2014 11:05

Документальное кино [DVD / HDDVD / BD / Remux] Дикая природа Скандинавии / Wild Scandinavia / Wildes Skandinavien (Уве Андерс, Оливер Гётцль, Ян Хафт, Тобиас Меннле / Uwe Anders, Oliver Goetzl, Jan Haft, Tobias Mennle) [2011 г., документальный,... uzi2009
4 | 2

0 | 1038

4

16.07.2014 07:05

Документальное кино [DVD / HDDVD / BD / Remux] Дикая природа Японии / Wildes Japan (Jens Westphalen, Thoralf Grospitz) [2010, Документальный, Blu-ray 1080i] AVO (Ю.Сербин), Original (Ger) uzi2009
3 | 1

0 | 1037

6

16.07.2014 07:22


Яндекс.Метрика powered by Sphinx


В Н И М А Н И Е
Сайт не распространяет и не хранит электронные версии произведений, а лишь бесплатно и без коммерческой выгоды (не требуя взамен платы,
SMS и т.д.) предоставляет доступ к создаваемому пользователями каталогу ссылок на торрент-файлы, которые содержат только списки хеш-сумм.
Убедительная просьба с жалобами обращаться напрямую к пользователю, разместившему торрент файл.

Вверх