Loading...
Error

Юрий Визбор. Не верь разлукам, старина! [2009 г., документальный, биография, культура, SatRip]

Статистика раздачи
Размер:  480 MB   |    Зарегистрирован:  9 месяцев   |    Скачан:  3 раза

Полного источника не было: 6 месяцев

Сидов:  0  |  0 KB/s  ]   Личеров:  0  |  0 KB/s  ]

* - сиды/пиры с внешних источников

   
 
Автор Сообщение

ARI71 Пол:Муж

28-Фев-2016 08:27

Юрий Визбор. Не верь разлукам, старина!


Год выпуска: 2009
Жанр: документальный, биография, культура
Страна: Россия, Первый канал
Режиссер: Фуад Шабанов
Сюжет фильма:
Юрий Визбор родился в Москве 20 июня 1934 г. Его мать Мария Шевченко и отец Юзеф Визборас познакомились в Краснодаре. Юзеф был красным командиром, моряком, а также неплохим художником. В годы сталинского террора он был репрессирован, а в 1958-м реабилитирован посмертно. Юрий с мамой были вынуждены "путешествовать" по стране в поисках заработка.

Ю́рий Ио́сифович (Юзефович) Ви́збор (20 июня 1934 — 17 сентября 1984) — советский автор-исполнитель песен, киноактёр, журналист, прозаик, киносценарист и -документалист, драматург, поэт, художник; один из основоположников жанра авторской, студенческой, туристской песни; создатель жанра «песни-репортажа», автор более 300 песен. Один из наиболее ярких и самобытных бардов. Член Союза журналистов и Союза композиторов СССР.
Качество видео: SatRip

Продолжительность: 00:50:21
Формат: AVI
Видео: XviD, 672x400, ~1194 kbps
Аудио: русский, оригинал, MP3 2.0, ~128.00 kbps

Код:

Общее
Полное имя : D:\Ytriy.Vizbor.2009.XviD.SATRip.*другой трекер*.avi
Формат : AVI
Формат/Информация : Audio Video Interleave
Размер файла : 480 Мбайт
Продолжительность : 50 м.
Общий поток : 1332 Кбит/сек
Программа кодирования : VirtualDubModRus 1.5.10.2 (build 2542/release)
Библиотека кодирования : VirtualDubMod build 2542/release

Видео
Идентификатор : 0
Формат : MPEG-4 Visual
Профиль формата : Advanced Simple@L5
Параметр BVOP формата : 2
Параметр QPel формата : Нет
Параметр GMC формата : Без точки перехода
Параметр матрицы формата : Default (MPEG)
Режим смешивания : Сжатый битовый поток
Идентификатор кодека : XVID
Идентификатор кодека/Подсказка : XviD
Продолжительность : 50 м.
Битрейт : 1194 Кбит/сек
Ширина : 672 пикселя
Высота : 400 пикселей
Соотношение сторон : 5:3
Частота кадров : 25,000 кадров/сек
Цветовое пространство : YUV
Субдискретизация насыщенности : 4:2:0
Битовая глубина : 8 бит
Тип развёртки : Прогрессивная
Метод сжатия : С потерями
Бит/(Пиксели*Кадры) : 0.178
Размер потока : 430 Мбайт (90%)
Библиотека кодирования : XviD 1.2.0.dev47 (UTC 2006-11-01)

Аудио
Идентификатор : 1
Формат : MPEG Audio
Версия формата : Version 1
Профиль формата : Layer 3
Режим : Joint stereo
Расширение режима : MS Stereo
Идентификатор кодека : 55
Идентификатор кодека/Подсказка : MP3
Продолжительность : 50 м.
Вид битрейта : Постоянный
Битрейт : 128 Кбит/сек
Каналы : 2 канала
Частота : 48,0 КГц
Метод сжатия : С потерями
Размер потока : 46,1 Мбайт (10%)
Выравнивание : Соединение по промежуткам
Продолжительность промежутка : 40 мс. (1,00 видеокадр)
Время предзагрузки промежутка : 504 мс.
Релиз группы:

picpicpicpic
Для увеличения картинки щелкните мышкой по превью

Этот торрент недоступен для скачивания без регистрации, однако доступен по публичной magnet-ссылке (источники с публичных трекеров). Перед использованием ссылки прочтите, пожалуйста Пользовательское соглашение, а также как можно дольше оставайтесь на раздаче! Для того, чтобы скачать сам торрент-файл (который видит больше источников), а также для того, чтобы поблагодарить релизера, вам необходимо зарегистрироваться. Если регистрироваться лень - вы можете также попробовать скачать релиз по нашим партнерским ссылкам ниже.

[underverse.su].t63698.torrent
Трекер: Зарегистрирован   [ 28.02.2016 08:27 ]  

Статус: проверено (by makkol at 02.03.2016 12:58)
Поблагодарили: 1 человек
Тип торрента: публичный - доступные источники с открытых трекеров: 
Размер: 480 MB (занимает 0,11 DVDR, для записи нужно 1 болванка DVDR/RW)
 
 

ARI71 Пол:Муж

02-Мар-2016 06:30


Яндекс.Метрика powered by Sphinx


В Н И М А Н И Е
Сайт не распространяет и не хранит электронные версии произведений, а лишь бесплатно и без коммерческой выгоды (не требуя взамен платы,
SMS и т.д.) предоставляет доступ к создаваемому пользователями каталогу ссылок на торрент-файлы, которые содержат только списки хеш-сумм.
Убедительная просьба с жалобами обращаться напрямую к пользователю, разместившему торрент файл.

Вверх