Loading...
Error

Российский Дальний Восток : Спасти и сохранить. Атаман Семёнов и Япония [2014 г., документальный, история, хроника, SatRip]

Статистика раздачи
Размер:  456 MB   |    Зарегистрирован:  9 месяцев   |    Скачан:  2 раза

Полного источника не было: 7 месяцев

Сидов:  0  |  0 KB/s  ]   Личеров:  0  |  0 KB/s  ]

* - сиды/пиры с внешних источников

   
 
Автор Сообщение

ARI71 Пол:Муж

28-Фев-2016 07:42

Российский Дальний Восток : Спасти и сохранить. Атаман Семёнов и Япония


Год выпуска: 2014
Жанр: документальный, история, хроника
Страна: Россия, ОАО "ТВ Центр"
Режиссер: Екатерина Гальперина
Ведущий: Леонид Млечин
Сюжет фильма:
Как и во всей России, Гражданская война на Дальнем Востоке обернулась хаосом неуправляемых страстей, страха и ненависти. К власти приходили бандиты и авантюристы. Один из них, есаул Григорий Семёнов, за два года сделался атаманом Дальневосточного казачьего войска. Барон фон Унгерн поставил перед собой цель свергнуть большевиков с помощью кочевых монголов и возродить империю Чингиз-хана.
Качество видео: SatRip

Продолжительность: 00:38:56
Формат: AVI
Видео: XviD, 640x480, ~1498 kbps
Аудио: русский, оригинал, MP3 2.0, ~128.00 kbps
Григо́рий Миха́йлович Семёнов (13 [25] сентября 1890, караул Куранжа, Дурулгуевская станица, Забайкальская область — 30 августа 1946, Москва) — казачий атаман, деятель Белого движения в Забайкалье и на Дальнем Востоке, генерал-лейтенант (1919).

Барон Ро́берт-Ни́колай-Максими́лиан (Рома́н Фёдорович) фон У́нгерн-Ште́рнберг (нем. Nikolai Robert Max Baron von Ungern-Sternberg; 29 декабря (10 января) 1886, Грац — 15 сентября 1921, Новониколаевск) — русский генерал, видный деятель Белого движения на Дальнем Востоке. Восстановил независимость Монголии. Автор идеи реставрации империи Чингис-хана от Тихого океана до Каспия.
Кавалер ордена Святого Георгия 4-й степени, ордена Святого Владимира 4-й степени, орденов Святой Анны 3-й и 4-й степеней, ордена Святого Станислава 3-й степени.

(Материал взят из Википедии — свободной энциклопедии)

Код:

Общее
Полное имя : D:\Ataman.Semenov.i.Japonija.2014.SATRip.avi
Формат : AVI
Формат/Информация : Audio Video Interleave
Размер файла : 456 Мбайт
Продолжительность : 38 м.
Общий поток : 1636 Кбит/сек
Программа кодирования : VirtualDubMod 1.5.10.3 | www.virtualdub-fr.org || (build 2550/release)
Библиотека кодирования : VirtualDubMod build 2550/release

Видео
Идентификатор : 0
Формат : MPEG-4 Visual
Профиль формата : Advanced Simple@L5
Параметр BVOP формата : 2
Параметр QPel формата : Нет
Параметр GMC формата : Без точки перехода
Параметр матрицы формата : Default (MPEG)
Идентификатор кодека : XVID
Идентификатор кодека/Подсказка : XviD
Продолжительность : 38 м.
Битрейт : 1498 Кбит/сек
Ширина : 640 пикселей
Высота : 480 пикселей
Соотношение сторон : 4:3
Частота кадров : 25,000 кадров/сек
Цветовое пространство : YUV
Субдискретизация насыщенности : 4:2:0
Битовая глубина : 8 бит
Тип развёртки : Прогрессивная
Метод сжатия : С потерями
Бит/(Пиксели*Кадры) : 0.195
Размер потока : 417 Мбайт (92%)
Библиотека кодирования : XviD 1.2.1 (UTC 2008-12-04)

Аудио
Идентификатор : 1
Формат : MPEG Audio
Версия формата : Version 1
Профиль формата : Layer 3
Идентификатор кодека : 55
Идентификатор кодека/Подсказка : MP3
Продолжительность : 38 м.
Вид битрейта : Постоянный
Битрейт : 128 Кбит/сек
Каналы : 2 канала
Частота : 48,0 КГц
Метод сжатия : С потерями
Размер потока : 35,7 Мбайт (8%)
Выравнивание : Соединение по промежуткам
Продолжительность промежутка : 40 мс. (1,00 видеокадр)
Время предзагрузки промежутка : 504 мс.
Библиотека кодирования : LAME3.99r
Настройки программы : -m s -V 4 -q 2 -lowpass 17 -b 128
picpicpicpicpicpic
Для увеличения картинки щелкните мышкой по превью

Этот торрент недоступен для скачивания без регистрации, однако доступен по публичной magnet-ссылке (источники с публичных трекеров). Перед использованием ссылки прочтите, пожалуйста Пользовательское соглашение, а также как можно дольше оставайтесь на раздаче! Для того, чтобы скачать сам торрент-файл (который видит больше источников), а также для того, чтобы поблагодарить релизера, вам необходимо зарегистрироваться. Если регистрироваться лень - вы можете также попробовать скачать релиз по нашим партнерским ссылкам ниже.

[underverse.su].t63696.torrent
Трекер: Зарегистрирован   [ 28.02.2016 07:42 ]  

Статус: проверено (by makkol at 02.03.2016 12:59)
Поблагодарили: пока никто не поблагодарил...
Тип торрента: публичный - доступные источники с открытых трекеров: 
Размер: 456 MB (занимает 0,1 DVDR, для записи нужно 1 болванка DVDR/RW)
 
 

ARI71 Пол:Муж

02-Мар-2016 12:47

.

Яндекс.Метрика powered by Sphinx


В Н И М А Н И Е
Сайт не распространяет и не хранит электронные версии произведений, а лишь бесплатно и без коммерческой выгоды (не требуя взамен платы,
SMS и т.д.) предоставляет доступ к создаваемому пользователями каталогу ссылок на торрент-файлы, которые содержат только списки хеш-сумм.
Убедительная просьба с жалобами обращаться напрямую к пользователю, разместившему торрент файл.

Вверх