Loading...
Error

Драгоценные посланники цветов / Hummingbirds - Jeweled Messengers [2012 г., документальный, фауна, орнитология, IPTVRip] Dub

Статистика раздачи
Размер:  605 MB   |    Зарегистрирован:  9 месяцев   |    Скачан:  2 раза

Полного источника не было: 9 месяцев

Сидов:  0  |  0 KB/s  ]   Личеров:  0  |  0 KB/s  ]

* - сиды/пиры с внешних источников

   
 
Автор Сообщение

ARI71 Пол:Муж

27-Фев-2016 12:45

Драгоценные посланники цветов / Hummingbirds - Jeweled Messengers


Год выпуска: 2012
Жанр: документальный, фауна, орнитология
Страна: Австрия, "A Terra Master Faktual Studios", "Free Spirit Films Production"
Режиссер: Пол Редиш
Сюжет фильма:
Колибри – величайшие воздушные акробаты, способные выполнять в воздухе поистине невероятные трюки: они могут неподвижно зависать в воздухе, летать в обратном направлении и даже летать вверх ногами. Кроме того, эти крохотные яркие птицы выполняют важную функцию опыления многих видов растений.
Фильм представляет собой увлекательное путешествие в мир сверкающих посланников растений, а новейшие технологии съемки позволяют показать это чудо природы в мельчайших подробностях.
Качество видео: IPTVRip

Продолжительность: 00:52:48
Формат: AVI
Видео: DivX, 704x432, ~1455 kbps
Аудио: русский, дублированный, MP3 2.0, ~128.00 kbps

Код:

Общее
Полное имя : D:\Драгоценные посланники цветов.avi
Формат : AVI
Формат/Информация : Audio Video Interleave
Размер файла : 605 Мбайт
Продолжительность : 52 м.
Общий поток : 1601 Кбит/сек

Видео
Идентификатор : 0
Формат : MPEG-4 Visual
Профиль формата : Advanced Simple@L4
Параметр BVOP формата : 2
Параметр QPel формата : Нет
Параметр GMC формата : Без точки перехода
Параметр матрицы формата : Default (H.263)
Идентификатор кодека : DIVX
Идентификатор кодека/Информация : Project Mayo
Идентификатор кодека/Подсказка : DivX 4
Продолжительность : 52 м.
Битрейт : 1454 Кбит/сек
Ширина : 704 пикселя
Высота : 432 пикселя
Соотношение сторон : 16:10
Частота кадров : 50,000 кадров/сек
Цветовое пространство : YUV
Субдискретизация насыщенности : 4:2:0
Битовая глубина : 8 бит
Тип развёртки : Прогрессивная
Метод сжатия : С потерями
Бит/(Пиксели*Кадры) : 0.096
Размер потока : 549 Мбайт (91%)
Библиотека кодирования : XviD 64

Аудио
Идентификатор : 1
Формат : MPEG Audio
Версия формата : Version 1
Профиль формата : Layer 3
Идентификатор кодека : 55
Идентификатор кодека/Подсказка : MP3
Продолжительность : 52 м.
Продолжительность оригинала : 52 м.
Вид битрейта : Постоянный
Битрейт : 128 Кбит/сек
Каналы : 2 канала
Частота : 48,0 КГц
Метод сжатия : С потерями
Размер потока : 48,4 Мбайт (8%)
Выравнивание : Соединение по промежуткам
Продолжительность промежутка : 24 мс. (1,20 видеокадр)
picpicpicpic
Для увеличения картинки щелкните мышкой по превью

Этот торрент недоступен для скачивания без регистрации, однако доступен по публичной magnet-ссылке (источники с публичных трекеров). Перед использованием ссылки прочтите, пожалуйста Пользовательское соглашение, а также как можно дольше оставайтесь на раздаче! Для того, чтобы скачать сам торрент-файл (который видит больше источников), а также для того, чтобы поблагодарить релизера, вам необходимо зарегистрироваться. Если регистрироваться лень - вы можете также попробовать скачать релиз по нашим партнерским ссылкам ниже.

[underverse.su].t63665.torrent
Трекер: Зарегистрирован   [ 27.02.2016 12:45 ]  

Статус: проверено (by makkol at 27.02.2016 22:40)
Поблагодарили: пока никто не поблагодарил...
Тип торрента: публичный - доступные источники с открытых трекеров: 
Размер: 605 MB (занимает 0,13 DVDR, для записи нужно 1 болванка DVDR/RW)
 
 
Похожие темы
Форум Тема Автор Торрент Отв. Посл. сооб.
Стили, градиенты Драгоценные стили для Photoshop.[6.ASL.PSD] nikola120
0 | 0

0 | 981

3

09.04.2014 02:30

ARI71 Пол:Муж

27-Фев-2016 12:56

Оставатесь пож-та как можно дольше на раздаче! Тем самым вы даёте возможность релизёру создавать новые релизы!


Яндекс.Метрика powered by Sphinx


В Н И М А Н И Е
Сайт не распространяет и не хранит электронные версии произведений, а лишь бесплатно и без коммерческой выгоды (не требуя взамен платы,
SMS и т.д.) предоставляет доступ к создаваемому пользователями каталогу ссылок на торрент-файлы, которые содержат только списки хеш-сумм.
Убедительная просьба с жалобами обращаться напрямую к пользователю, разместившему торрент файл.

Вверх