Loading...
Error

Леонид Каневский. Приключения сыщика [2009 г., документальный, биография, кинематограф, SatRip]

Статистика раздачи
Размер:  669 MB   |    Зарегистрирован:  9 месяцев   |    Скачан:  1 раз

Полного источника не было: 6 месяцев

Сидов:  0  |  0 KB/s  ]   Личеров:  0  |  0 KB/s  ]

* - сиды/пиры с внешних источников

   
 
Автор Сообщение

ARI71 Пол:Муж

27-Фев-2016 07:58

Леонид Каневский. Приключения сыщика


Год выпуска: 2009
Жанр: документальный, биография, кинематограф
Страна: Россия, Производство ООО "БеМиС Продакшн" по заказу Первого канала
Режиссер: Ирина Голубева
В ролях: Леонид Каневский, Лев Дуров, Эммануил Виторган, Георгий Мартынюк
Сюжет фильма:
Этого актера узнают всегда. Впрочем, иногда, путают его имя. Для многих Леонид Каневский, несмотря на десятки сыгранных ролей, остался бравым сыщиком Шуриком Томиным из телесериала 70-х «Следствие ведут знатоки». В фильме, приуроченном к 70-летию артиста, есть многие неизвестные зрителям факты его биографии. У Леонида Каневского на редкость благополучная творческая и личная судьба. Он востребован с молодости. Веселый, искрометный, добрый человек, он в сложных ситуациях всегда проявлял силу и твердость настоящего мужчины. Как он сам говорит, приходилось ломать судьбу о колено. В одной из серий любимец публики майор Томин получил бандитскую пулю. Страна ахнула. Мешки писем посыпались на Центральное телевидении: он жив или только ранен? Были даже угрозы: «Убьете Томина — разобьем телевизор». В начале 90-х резко поменял жизнь, уехал в Израиль — и очень скоро стал ведущим актером театра «Гешер» в Тель-Авиве. Но и в России остался востребованным и любимым мастером. Снимается на телевидении, играет в антрепризах.

Леонид Семёнович Кане́вский (2 мая 1939, Киев, Украинская ССР, СССР) — советский, израильский и российский актёр театра и кино, телевизионный ведущий. Заслуженный артист РСФСР (1984).
Качество видео: SatRip

Продолжительность: 00:51:00
Формат: AVI
Видео: XviD, 720x480, ~1598 kbps
Аудио: русский, оригинал, MP3 2.0, ~192.00 kbps

Код:

Общее
Полное имя : D:\Leonid.Kanevskii.Prikljuchenija.sischika.2009.XviD.SATRip.avi
Формат : AVI
Формат/Информация : Audio Video Interleave
Размер файла : 669 Мбайт
Продолжительность : 51 м.
Общий поток : 1800 Кбит/сек
Библиотека кодирования : VirtualDub build 35491/release

Видео
Идентификатор : 0
Формат : MPEG-4 Visual
Профиль формата : Advanced Simple@L5
Параметр BVOP формата : 2
Параметр QPel формата : Нет
Параметр GMC формата : Без точки перехода
Параметр матрицы формата : Default (H.263)
Режим смешивания : Сжатый битовый поток
Идентификатор кодека : XVID
Идентификатор кодека/Подсказка : XviD
Продолжительность : 51 м.
Битрейт : 1599 Кбит/сек
Ширина : 720 пикселей
Высота : 480 пикселей
Соотношение сторон : 3:2
Частота кадров : 25,000 кадров/сек
Цветовое пространство : YUV
Субдискретизация насыщенности : 4:2:0
Битовая глубина : 8 бит
Тип развёртки : Прогрессивная
Метод сжатия : С потерями
Бит/(Пиксели*Кадры) : 0.185
Размер потока : 594 Мбайт (89%)
Библиотека кодирования : XviD 73

Аудио
Идентификатор : 1
Формат : MPEG Audio
Версия формата : Version 1
Профиль формата : Layer 3
Идентификатор кодека : 55
Идентификатор кодека/Подсказка : MP3
Продолжительность : 51 м.
Вид битрейта : Постоянный
Битрейт : 192 Кбит/сек
Каналы : 2 канала
Частота : 44,1 КГц
Метод сжатия : С потерями
Размер потока : 71,3 Мбайт (11%)
Выравнивание : Разделение по промежуткам
Продолжительность промежутка : 40 мс. (1,00 видеокадр)
Время предзагрузки промежутка : 500 мс.
Релиз группы:

picpicpicpic
Для увеличения картинки щелкните мышкой по превью

Этот торрент недоступен для скачивания без регистрации, однако доступен по публичной magnet-ссылке (источники с публичных трекеров). Перед использованием ссылки прочтите, пожалуйста Пользовательское соглашение, а также как можно дольше оставайтесь на раздаче! Для того, чтобы скачать сам торрент-файл (который видит больше источников), а также для того, чтобы поблагодарить релизера, вам необходимо зарегистрироваться. Если регистрироваться лень - вы можете также попробовать скачать релиз по нашим партнерским ссылкам ниже.

[underverse.su].t63653.torrent
Трекер: Зарегистрирован   [ 27.02.2016 07:58 ]  

Статус: проверено (by makkol at 27.02.2016 12:22)
Поблагодарили: 1 человек
Тип торрента: публичный - доступные источники с открытых трекеров: 
Размер: 669 MB (занимает 0,15 DVDR, для записи нужно 1 болванка DVDR/RW)
 
 

ARI71 Пол:Муж

27-Фев-2016 08:02

Просьба к тем, кто скачает релиз: пож-та оставайтесь на раздаче как можно дольше. Это даёт возможность релизёру создавать для вас новые релизы. Спасибо. Приятного просмотра!

Яндекс.Метрика powered by Sphinx


В Н И М А Н И Е
Сайт не распространяет и не хранит электронные версии произведений, а лишь бесплатно и без коммерческой выгоды (не требуя взамен платы,
SMS и т.д.) предоставляет доступ к создаваемому пользователями каталогу ссылок на торрент-файлы, которые содержат только списки хеш-сумм.
Убедительная просьба с жалобами обращаться напрямую к пользователю, разместившему торрент файл.

Вверх