Loading...
Error

Возвращение / Comeback (Наташа Артю) [2015 г., комедия, DVDRip] VO

Статистика раздачи
Размер:  812 MB   |    Зарегистрирован:  9 месяцев   |    Скачан:  13 раз
Сидов:  1  |  0 KB/s  ]   Личеров:  0  |  0 KB/s  ]

* - сиды/пиры с внешних источников

   
 
Автор Сообщение

makkol Пол:Муж

26-Фев-2016 23:21

Возвращение / Comeback


Год выпуска: 2015
Жанр: комедия
Производство: Дания [Toolbox Film]
Режиссер: Наташа Артю
В ролях: Андерс В. Бертельсен, Сара-Софи Бусснина, Педер Томас Педерсен, Роберта Райххардт, Филиппа Суэнсон, Бенедикте Хансен
Сюжет фильма:
Сорокалетний комик Томас Ванг мечтает вернуться на большую сцену. В разгар подготовки к турне к нему неожиданно приезжает его дочь-подросток Фредерикке. Она требует внимания к себе, общения, что грозит сорвать грандиозные планы поглощённого собой и карьерой отца...

  • Мировая премьера: 6 августа 2015


Качество видео: DVDRip

Продолжительность: 01:21:46
Формат: AVI
Видео: XviD, 720x288, 25.000 fps, 1187 kbps
Аудио: русский, любительский одноголосый закадровый, MP3 2.0, 48 kHz, 192 kbps

Код:

Формат : AVI
Формат/Информация : Audio Video Interleave
Размер файла : 812 Мбайт
Продолжительность : 1 ч. 21 м.
Общий поток : 1388 Кбит/сек
Программа кодирования : VirtualDubMod 1.5.10.2 (build 2540/release)
Библиотека кодирования : VirtualDubMod build 2540/release

Видео
Идентификатор : 0
Формат : xvid
Идентификатор кодека : xvid
Продолжительность : 1 ч. 21 м.
Битрейт : 1187 Кбит/сек
Ширина : 720 пикселей
Высота : 288 пикселей
Соотношение сторон : 2,500
Частота кадров : 25,000 кадров/сек
Бит/(Пиксели*Кадры) : 0.229
Размер потока : 694 Мбайт (85%)

Аудио
Идентификатор : 1
Формат : MPEG Audio
Версия формата : Version 1
Профиль формата : Layer 3
Режим : Joint stereo
Расширение режима : MS Stereo
Идентификатор кодека : 55
Идентификатор кодека/Подсказка : MP3
Продолжительность : 1 ч. 21 м.
Вид битрейта : Постоянный
Битрейт : 192 Кбит/сек
Каналы : 2 канала
Частота : 48,0 КГц
Метод сжатия : С потерями
Размер потока : 112 Мбайт (14%)
Выравнивание : Соединение по промежуткам
Продолжительность промежутка : 40 мс. (1,00 видеокадр)
Время предзагрузки промежутка : 504 мс.
Перевод: adelstein_s
Озвучивание: Павел Морозов aka PashaUp
picpicpicpicpic
Для увеличения картинки щелкните мышкой по превью

Этот торрент недоступен для скачивания без регистрации, однако доступен по публичной magnet-ссылке (источники с публичных трекеров). Перед использованием ссылки прочтите, пожалуйста Пользовательское соглашение, а также как можно дольше оставайтесь на раздаче! Для того, чтобы скачать сам торрент-файл (который видит больше источников), а также для того, чтобы поблагодарить релизера, вам необходимо зарегистрироваться. Если регистрироваться лень - вы можете также попробовать скачать релиз по нашим партнерским ссылкам ниже.

[underverse.su].t63648.torrent
Трекер: Зарегистрирован   [ 26.02.2016 23:21 ]  

Статус: проверено (by makkol at 01.03.2016 23:04)
Поблагодарили: пока никто не поблагодарил...
Тип торрента: публичный - доступные источники с открытых трекеров: 
Размер: 812 MB (занимает 0,18 DVDR, для записи нужно 1 болванка DVDR/RW)
 
 
Похожие темы
Форум Тема Автор Торрент Отв. Посл. сооб.
Зарубежное кино [DVDRip, Low-Res HDRip, и т.д.] Возвращение / Restitution (Lance Kawas) [2011 г., триллер, криминал, HDRip] MVO [лицензия] 90ytr90
1 | 0

0 | 557

20

22.09.2012 10:42

Зарубежное кино [DVDRip, Low-Res HDRip, и т.д.] Возвращение на базу / Взвейся в небо / R2B: Return 2 Base (Донг-вон Ким) [2012 г., боевик, драма, HDTVRip] DVO (den904, DeadSno) 90ytr90
11 | 0

0 | 1016

19

07.12.2012 21:12

Зарубежное кино [DVDRip, Low-Res HDRip, и т.д.] Возвращение живых мертвецов 3 / Return of the Living Dead III (Брайан Юзна) [1993 г., ужасы, фантастика, мелодрама, DVDRip] MVO RG NewCinema
3 | 0

0 | 1280

6

09.12.2012 17:32

Зарубежное кино [DVDRip, Low-Res HDRip, и т.д.] Возвращение в Брайдсхед / Brideshead Revisited (Джулиан Джаррольд) [2008, драма, мелодрама, HDRip] MVO (R5) + DVO + Sub (2 x Rus; Eng) + Original Eng Garnett
10 | 1

0 | 1413

1

17.12.2012 12:19

Зарубежное кино [DVDRip, Low-Res HDRip, и т.д.] Возвращение на базу / Взвейся в небо / R2B: Return 2 Base / Soar Into The Sun (Донг-вон Ким / Dong-won Kim) [2012 г., боевик, драма, BDRip] DVO (den904, DeadSno) + DVO (Green Tea) + Original 90ytr90
0 | 0

0 | 723

14

25.12.2012 05:07

Зарубежное кино [DVDRip, Low-Res HDRip, и т.д.] Возвращение на остров Ним / Return to Nim's Island (Брендан Мехер) [2013 г., семейный, приключения, комедия, DVDRip] DVO RG NewCinema
15 | 0

0 | 7727

20

19.04.2013 13:50

Зарубежное кино [DVDRip, Low-Res HDRip, и т.д.] Возвращение героя / The Last Stand (Ким Чжи Ун) [2013 г., боевик, триллер, криминал, HDRip] Dub [Лицензия] TERRAN
0 | 0

0 | 1512

95

21.04.2013 15:35

Зарубежное кино [DVDRip, Low-Res HDRip, и т.д.] Возвращение героя / The Last Stand (Ким Чжи-ун) [2013 г., боевик, триллер, криминал, HDRip] Dub + Eng 90ytr90
3 | 0

0 | 1170

9

21.04.2013 18:57

Зарубежное кино [DVDRip, Low-Res HDRip, и т.д.] Возвращение героя / The Last Stand (Ким Чжи Ун / Kim Ji Woon) [2013 г., боевик, триллер, криминал, BDRip-AVC] DUB + Original Печаль'ka
22 | 0

1 | 985

31

21.05.2013 07:49

Зарубежное кино [DVDRip, Low-Res HDRip, и т.д.] Возвращение героя / The Last Stand (Ким Чжи Ун / Kim Ji Woon) [2013 г., боевик, триллер, криминал, BDRip-AVC] Dub 90ytr90
16 | 0

0 | 1139

27

22.04.2013 16:00


Яндекс.Метрика powered by Sphinx


В Н И М А Н И Е
Сайт не распространяет и не хранит электронные версии произведений, а лишь бесплатно и без коммерческой выгоды (не требуя взамен платы,
SMS и т.д.) предоставляет доступ к создаваемому пользователями каталогу ссылок на торрент-файлы, которые содержат только списки хеш-сумм.
Убедительная просьба с жалобами обращаться напрямую к пользователю, разместившему торрент файл.

Вверх