Loading...
Error

Пасечник / сезон 2 [1-32 серии из 32] (Сергей Быстрицкий) [2016 г., детектив, криминал, боевик, HDTVRip]

Статистика раздачи
Размер:  17,19 GB   |    Зарегистрирован:  8 месяцев   |    Скачан:  20 раз

Полного источника не было: 14 часов

Сидов:  0  |  0 KB/s  ]   Личеров:  0  |  0 KB/s  ]

* - сиды/пиры с внешних источников

   
 
Автор Сообщение

nemos Пол:Муж

26-Фев-2016 04:46

Пасечник


Год выпуска: 2016
Жанр: детектив, криминал, боевик
Страна: Россия
Режиссер: Сергей Быстрицкий
В ролях: Анатолий Журавлёв, Анастасия Панина, Иван Шмаков, Александр Носик, Иван Агапов, Максим Глотов, Бесо Гатаев, Сергей Шарифуллин, Максим Туранцев, Владимир Яковлев (II), Федор Румянцев, Максим Фролов, Сергей Друзьяк, Екатерина Сахарова, Олег Ребров, Александра Булычёва, Ричард Бондарев, Евгений Рябов, Алексей Герасимов (II), Наталья Барило, Андрей Харыбин, Леонид Тележинский, Александр Пацевич, Сергей Макаров (V), Андрей Сергеев (IV)
Сюжет фильма:
В новых сериях главный герой Глеб Збруев отстраивает пасеку, а тем временем ждут своего часа… полицейский китель и фуражка! Глеб возвращается в органы, но не в качестве сыскаря — эту страницу своей биографии он уже перевернул. Пасечник становится участковым — вместо Васи Клюева, которому с учетом его профессиональных заслуг и образования предлагают работу следователя в Климово. Теперь кабинет Клюева находится в том же здании ОВД, где работает Глеб. «В наследство» от Василия участковому достается Перепилец. Бравая «троица» и составит в новом сезоне костяк законников, противостоящих злу в Климовском районе. Им придется расследовать дела коллекторов и черных риелторов, убийство курьера, которое было совершено из похищенного у Перепильца табельного оружия, ловить вооруженного дезертира, сбежавшего из воинской части, а также разбираться со множеством других, запутанных и опасных преступлений.


Качество видео: HDTVRip

Продолжительность: 00:44:05 серия
Формат: AVI
Видео: XviD, 720х400, 1 544 kbps
Аудио: русский, AC3 2.0, 192 kbps

Код:

E:\фильмы\Pasechnik.2.2015.HDTVRip.Files-x\01.Pasechnik.2.2015.HDTVRip.Files-x.avi
   General
      Complete name : E:\фильмы\Pasechnik.2.2015.HDTVRip.Files-x\01.Pasechnik.2.2015.HDTVRip.Files-x.avi
      Format : AVI
      Format/Info : Audio Video Interleave
      File size : 550 MiB
      Duration : 44mn 5s
      Overall bit rate : 1 746 Kbps
      Writing application : VirtualDubMod 1.5.10.3 | www.virtualdub-fr.org || (build 2550/release)
      Writing library : VirtualDubMod build 2550/release
   Video #0
      ID : 0
      Format : MPEG-4 Visual
      Format profile : Advanced Simple@L5
      Format settings, BVOP : 1
      Format settings, QPel : No
      Format settings, GMC : No warppoints
      Format settings, Matrix : Custom
      Codec ID : XVID
      Codec ID/Hint : XviD
      Duration : 44mn 5s
      Bit rate : 1 544 Kbps
      Width : 720 pixels
      Height : 400 pixels
      Display aspect ratio : 16:9
      Frame rate : 25.000 fps
      Color space : YUV
      Chroma subsampling : 4:2:0
      Bit depth : 8 bits
      Scan type : Progressive
      Compression mode : Lossy
      Bits/(Pixel*Frame) : 0.214
      Stream size : 487 MiB (88%)
      Writing library : XviD 73
   Audio #1
      ID : 1
      Format : AC-3
      Format/Info : Audio Coding 3
      Mode extension : CM (complete main)
      Format settings, Endianness : Big
      Codec ID : 2000
      Duration : 44mn 5s
      Bit rate mode : Constant
      Bit rate : 192 Kbps
      Channel(s) : 2 channels
      Channel positions : Front: L R
      Sampling rate : 48.0 KHz
      Bit depth : 16 bits
      Compression mode : Lossy
      Stream size : 60.5 MiB (11%)
      Alignment : Split accross interleaves
      Interleave, duration : 40 ms (1.00 video frame)
      Interleave, preload duration : 500 ms
picpicpicpic
Для увеличения картинки щелкните мышкой по превью

Этот торрент недоступен для скачивания без регистрации, однако доступен по публичной magnet-ссылке (источники с публичных трекеров). Перед использованием ссылки прочтите, пожалуйста Пользовательское соглашение, а также как можно дольше оставайтесь на раздаче! Для того, чтобы скачать сам торрент-файл (который видит больше источников), а также для того, чтобы поблагодарить релизера, вам необходимо зарегистрироваться. Если регистрироваться лень - вы можете также попробовать скачать релиз по нашим партнерским ссылкам ниже.

[underverse.su].t64166.torrent
Трекер: Зарегистрирован   [ 12.03.2016 07:21 ]  

Статус: проверено (by nemos at 12.03.2016 07:22)
Поблагодарили: пока никто не поблагодарил...
Тип торрента: публичный - доступные источники с открытых трекеров: 
Размер: 17,19 GB (занимает 3,93 DVDR, для записи нужно 4 болванки DVDR/RW)
 
 
Похожие темы
Форум Тема Автор Торрент Отв. Посл. сооб.
xUSSR сериалы Пасечник / сезон 1 [1-32 серии из 32] (Сергей Быстрицкий) [2013 г., детектив, SatRip] nemos
6 | 5

0 | 560

11

26.02.2016 03:51


Яндекс.Метрика powered by Sphinx


В Н И М А Н И Е
Сайт не распространяет и не хранит электронные версии произведений, а лишь бесплатно и без коммерческой выгоды (не требуя взамен платы,
SMS и т.д.) предоставляет доступ к создаваемому пользователями каталогу ссылок на торрент-файлы, которые содержат только списки хеш-сумм.
Убедительная просьба с жалобами обращаться напрямую к пользователю, разместившему торрент файл.

Вверх