Loading...
Error

Пасечник / сезон 1 [1-32 серии из 32] (Сергей Быстрицкий) [2013 г., детектив, SatRip]

Статистика раздачи
Размер:  15,84 GB   |    Зарегистрирован:  9 месяцев   |    Скачан:  11 раз

Полного источника не было: 7 дней

Сидов:  0  |  0 KB/s  ]   Личеров:  0  |  0 KB/s  ]

* - сиды/пиры с внешних источников

   
 
Автор Сообщение

nemos Пол:Муж

26-Фев-2016 03:51

Пасечник


Год выпуска: 2013
Жанр: Детектив
Страна: Россия
Режиссер: Сергей Быстрицкий
В ролях: Анатолий Журавлёв, Анастасия Панина, Иван Шмаков, Александр Носик, Иван Агапов, Максим Глотов, Бесо Гатаев, Сергей Шарифуллин, Максим Туранцев, Владимир Яковлев, Федор Румянцев, Максим Фролов, Сергей Друзьяк, Екатерина Сахарова, Олег Ребров, Александра Булычёва, Ричард Бондарев, Евгений Рябов, Алексей Герасимов, Наталья Барило, Андрей Харыбин, Леонид Тележинский, Александр Пацевич, Сергей Макаров, Андрей Сергеев, Федор Бавтриков, Владимир Кадацкий, Егор Федотов, Егор Нестеров, Илья Лукашенко, Евгений Кулаков, Юрий Устюгов, Владимир Голицын, Михаил Негин, Дмитрий Скачков, Дмитрий Заволокин, Сергей Гришаков, Иван Гришанов, Владимир Воробьёв, Александр Силин, Елена Полянская
Сюжет фильма:
Глеб Збруев был одним из самых успешных следователей МУРа, пока однажды во время спецоперации его не ранили. Врачи не смогли извлечь шальную пулю, и она осталась внутри, прямо под сердцем, превратившись в бомбу замедленного действия, способную «рвануть» в любой момент. Из органов «опасного» сотрудника попросили уволиться: начальству не нужен следователь, которому приходится следить за собственным пульсом.


Качество видео: SatRip

Продолжительность: 00:41:43 серия
Формат: AVI
Видео: DivX, 720x400, 1 501 kbps
Аудио: русский, MP3 2.0, 128 kbps

Код:

Общее
Полное имя : D:\Торренты\ФИЛЬМЫ торента\Пасечник.2013.SATRip\Пасечник.01.avi
Формат : AVI
Формат/Информация : Audio Video Interleave
Размер файла : 489 Мбайт
Продолжительность : 41 м.
Общий поток : 1639 Кбит/сек
Библиотека кодирования : VirtualDub build 32842/release

Видео
Идентификатор : 0
Формат : MPEG-4 Visual
Параметр BVOP формата : 1
Параметр QPel формата : Нет
Параметр GMC формата : Без точки перехода
Параметр матрицы формата : Default (H.263)
Режим смешивания : Сжатый битовый поток
Идентификатор кодека : DX50
Идентификатор кодека/Подсказка : DivX 5
Продолжительность : 41 м.
Битрейт : 1501 Кбит/сек
Ширина : 720 пикс.
Высота : 400 пикс.
Соотношение сторон : 16:9
Частота кадров : 25,000 кадр/сек
Цветовое пространство : YUV
Подвыборка цветности : 4:2:0
Битовая глубина : 8 бит
Тип развёртки : Прогрессивная
Метод сжатия : С потерями
Бит/(Пиксели*Кадры) : 0.208
Размер потока : 448 Мбайт (92%)
Библиотека кодирования : DivX 6.8.5 (UTC 2009-08-20)

Аудио
Идентификатор : 1
Формат : MPEG Audio
Версия формата : Version 1
Профиль формата : Layer 3
Режим : Joint stereo
Идентификатор кодека : 55
Идентификатор кодека/Подсказка : MP3
Продолжительность : 41 м.
Вид битрейта : Постоянный
Битрейт : 128 Кбит/сек
Каналы : 2 канала
Частота : 48,0 КГц
Метод сжатия : С потерями
Размер потока : 38,2 Мбайт (8%)
Выравнивание : Разделение по промежуткам
Продолжительность промежутка : 40 мс. (1,00 видеокадр)
Время предзагрузки промежутка : 500 ms
Семпл: http://multi-up.com/910781

picpicpicpicpicpicpic
Для увеличения картинки щелкните мышкой по превью

Этот торрент недоступен для скачивания без регистрации, однако доступен по публичной magnet-ссылке (источники с публичных трекеров). Перед использованием ссылки прочтите, пожалуйста Пользовательское соглашение, а также как можно дольше оставайтесь на раздаче! Для того, чтобы скачать сам торрент-файл (который видит больше источников), а также для того, чтобы поблагодарить релизера, вам необходимо зарегистрироваться. Если регистрироваться лень - вы можете также попробовать скачать релиз по нашим партнерским ссылкам ниже.

[underverse.su].t63603.torrent
Трекер: Зарегистрирован   [ 26.02.2016 03:51 ]  

Статус: проверено (by nemos at 26.02.2016 03:51)
Поблагодарили: 1 человек
Тип торрента: публичный - доступные источники с открытых трекеров: 
Размер: 15,84 GB (занимает 3,62 DVDR, для записи нужно 4 болванки DVDR/RW)
 
 
Похожие темы
Форум Тема Автор Торрент Отв. Посл. сооб.
xUSSR сериалы Пасечник / сезон 2 [1-32 серии из 32] (Сергей Быстрицкий) [2016 г., детектив, криминал, боевик, HDTVRip] nemos
7 | 2

0 | 1343

20

26.02.2016 04:46


Яндекс.Метрика powered by Sphinx


В Н И М А Н И Е
Сайт не распространяет и не хранит электронные версии произведений, а лишь бесплатно и без коммерческой выгоды (не требуя взамен платы,
SMS и т.д.) предоставляет доступ к создаваемому пользователями каталогу ссылок на торрент-файлы, которые содержат только списки хеш-сумм.
Убедительная просьба с жалобами обращаться напрямую к пользователю, разместившему торрент файл.

Вверх