Loading...
Error

Прогулка среди могил / A Walk Among the Tombstones (Скотт Фрэнк) [2014 г., детектив, триллер, криминал, драма, BDRip] Dub (Line) + Original

Статистика раздачи
Размер:  1,47 GB   |    Зарегистрирован:  9 месяцев   |    Скачан:  12 раз

Полного источника не было: 9 часов

Сидов:  0  |  0 KB/s  ]   Личеров:  0  |  0 KB/s  ]

* - сиды/пиры с внешних источников

   
 
Автор Сообщение

makkol Пол:Муж

25-Фев-2016 23:05

Прогулка среди могил / A Walk Among the Tombstones
«Люди боятся не того, чего стоит бояться»


Год выпуска: 2014
Жанр: детектив, триллер, криминал, драма
Производство: США [1984 Private Defense Contractors, Cross Creek Pictures, Da Vinci Media Ventures]
Режиссер: Скотт Фрэнк
В ролях: Лиам Нисон, Дэн Стивенс, Дэвид Харбор, Бойд Холбрук, Себастьян Роше, Астро, Уитни Эйбл, Стефани Андужар, Марина Скверсьяти, Марк Консуэлос
Сюжет фильма:
Нью-Йорк охватывает волна странных и страшных убийств. Муж одной из жертв, наркобарон, нанимает бывшего полицейского, чтобы тот добрался до убийцы жены. Частный детектив Скаддер видит то, чего не замечает полиция, и проникает туда, куда копы боятся даже сунуть нос. Распутывая дьявольские преступления, он понимает, что люди боятся совсем не того.

  • Мировая премьера: 18 сентября 2014
  • Российская премьера: 16 октября 2014


Качество видео: BDRip

Продолжительность: 01:54:05
Формат: AVI
Видео: XviD, 720x304 (2.35:1), 23.976 fps, 1440 kbps
Аудио #1: русский, дублированный (чистый звук), AC3 2.0, 48 kHz, 192 kbps
Аудио #2: английский, оригинал, AC3 2.0, 48 kHz, 192 kbps

Код:

Format : AVI
Format/Info : Audio Video Interleave
File size : 1.47 GiB
Duration : 1h 54mn
Overall bit rate : 1 839 Kbps
Writing application : VirtualDubMod 1.5.10.3 (build 2550/release)

Video
ID : 0
Format : MPEG-4 Visual
Format profile : Advanced Simple@L5
Format settings, BVOP : Yes
Format settings, QPel : No
Format settings, GMC : No warppoints
Format settings, Matrix : Custom
Codec ID : XVID
Codec ID/Hint : XviD
Duration : 1h 54mn
Bit rate : 1 440 Kbps
Width : 720 pixels
Height : 304 pixels
Display aspect ratio : 2.35:1
Frame rate : 23.976 fps
Color space : YUV
Chroma subsampling : 4:2:0
Bit depth : 8 bits
Scan type : Progressive
Compression mode : Lossy
Bits/(Pixel*Frame) : 0.274
Stream size : 1.15 GiB (78%)
Writing library : XviD 73

Audio #1
ID : 1
Format : AC-3
Format/Info : Audio Coding 3
Mode extension : CM (complete main)
Format settings, Endianness : Big
Codec ID : 2000
Duration : 1h 54mn
Bit rate mode : Constant
Bit rate : 192 Kbps
Channel count : 2 channels
Channel positions : Front: L R
Sampling rate : 48.0 KHz
Bit depth : 16 bits
Compression mode : Lossy
Stream size : 157 MiB (10%)
Alignment : Split accross interleaves
Interleave, duration : 42 ms (1.00 video frame)
Interleave, preload duration : 500 ms

Audio #2
ID : 2
Format : AC-3
Format/Info : Audio Coding 3
Mode extension : CM (complete main)
Format settings, Endianness : Big
Codec ID : 2000
Duration : 1h 54mn
Bit rate mode : Constant
Bit rate : 192 Kbps
Channel count : 2 channels
Channel positions : Front: L R
Sampling rate : 48.0 KHz
Bit depth : 16 bits
Compression mode : Lossy
Stream size : 157 MiB (10%)
Alignment : Split accross interleaves
Interleave, duration : 42 ms (1.00 video frame)
Interleave, preload duration : 500 ms
Релиз:
Релиз без рекламы!


picpicpicpicpic
Для увеличения картинки щелкните мышкой по превью

Этот торрент недоступен для скачивания без регистрации, однако доступен по публичной magnet-ссылке (источники с публичных трекеров). Перед использованием ссылки прочтите, пожалуйста Пользовательское соглашение, а также как можно дольше оставайтесь на раздаче! Для того, чтобы скачать сам торрент-файл (который видит больше источников), а также для того, чтобы поблагодарить релизера, вам необходимо зарегистрироваться. Если регистрироваться лень - вы можете также попробовать скачать релиз по нашим партнерским ссылкам ниже.

[underverse.su].t63598.torrent
Трекер: Зарегистрирован   [ 25.02.2016 23:05 ]  

Статус: T временная (by makkol at 25.02.2016 23:58)
Поблагодарили: 1 человек
Тип торрента: публичный - доступные источники с открытых трекеров: 
Размер: 1,47 GB (занимает 0,33 DVDR, для записи нужно 1 болванка DVDR/RW)
 
 
Похожие темы
Форум Тема Автор Торрент Отв. Посл. сооб.
T Зарубежное кино [DVDRip, Low-Res HDRip, и т.д.] Прогулка среди могил / A Walk Among the Tombstones (Скотт Фрэнк) [2014 г., Триллер, Драма, Криминал, WEBRip] DVO (RUS, Сладкая парочка) + Subs (CHN) Ведьмочка
323 | 9

0 | 1208

61

11.10.2014 04:41

T Зарубежное кино [DVDRip, Low-Res HDRip, и т.д.] Прогулка среди могил / A Walk Among the Tombstones (Скотт Фрэнк) [2014 г., Триллер, Драма, Криминал, WEBRip] DVO (RUS, Сладкая парочка) + Original (ENG) + Subs (CHN) Ведьмочка
33 | 0

0 | 981

60

11.10.2014 11:58

Зарубежное кино [DVDRip, Low-Res HDRip, и т.д.] Прогулка среди могил / A Walk Among the Tombstones (Скотт Фрэнк) [2014 г., боевик, триллер, криминал, детектив, HDRip] MVO Паукан
52 | 0

1 | 582

32

08.01.2015 18:28

Зарубежное кино [DVDRip, Low-Res HDRip, и т.д.] Прогулка среди могил / A Walk Among the Tombstones (Скотт Фрэнк / Scott Frank) [2014 г., детектив, триллер, криминал, драма, HDRip] AVO (Есарев - без цензуры) 90ytr90
305 | 2

0 | 368

16

05.02.2015 05:56

Зарубежное кино [DVDRip, Low-Res HDRip, и т.д.] Прогулка с мертвецами / Walking with the Dead (Скотт Дау) [2015 г., комедия, WEB-DLRip] MVO + Original makkol
136 | 5

0 | 378

19

30.09.2015 11:28

Зарубежное кино [HDDVDRip / BDRip / WEB-DL / HDTV 1080/720р] Прогулка среди могил / A Walk Among the Tombstones (Скотт Фрэнк) [2014 г., боевик, триллер, криминал, детектив, BDRip 720p] MVO + Original Паукан
1 | 0

0 | 512

24

31.12.2014 14:42

Зарубежное кино [HDDVDRip / BDRip / WEB-DL / HDTV 1080/720р] Прогулка среди могил / A Walk Among the Tombstones (Скотт Фрэнк / Scott Frank) [2014 г., детектив, триллер, криминал, драма, BDRip 720p] 2xAVO (Есарев) + Original (Eng) + Sub (Eng) 90ytr90
34 | 3

0 | 336

4

05.02.2015 06:30

Зарубежное кино [HDDVDRip / BDRip / WEB-DL / HDTV 1080/720р] Прогулка среди могил / A Walk Among the Tombstones (Скотт Фрэнк / Scott Frank) [2014 г., детектив, триллер, криминал, драма, BDRip 1080p] 2xAVO (Есарев) + Original (Eng) + Sub (Eng) 90ytr90
23 | 1

0 | 363

9

05.02.2015 06:43

Зарубежное кино [HDDVDRip / BDRip / WEB-DL / HDTV 1080/720р] Прогулка с мертвецами / Walking with the Dead (Скотт Дау) [2015 г., комедия, WEB-DL 720p] MVO + Original makkol
25 | 0

0 | 396

12

30.09.2015 11:44

T Зарубежное кино [HDDVDRip / BDRip / WEB-DL / HDTV 1080/720р] Прогулка среди могил / A Walk Among the Tombstones (Скотт Фрэнк) [2014 г., детектив, триллер, криминал, драма, BDRip 720p] Dub (Line) + Original makkol
28 | 4

0 | 448

5

25.02.2016 23:15


Яндекс.Метрика powered by Sphinx


В Н И М А Н И Е
Сайт не распространяет и не хранит электронные версии произведений, а лишь бесплатно и без коммерческой выгоды (не требуя взамен платы,
SMS и т.д.) предоставляет доступ к создаваемому пользователями каталогу ссылок на торрент-файлы, которые содержат только списки хеш-сумм.
Убедительная просьба с жалобами обращаться напрямую к пользователю, разместившему торрент файл.

Вверх