Loading...
Error

Американский герой / American hero (Ник Лав) [2015 г., комедия, боевик, мелодрама, BDRip] VO + Original

Статистика раздачи
Размер:  1,43 GB   |    Зарегистрирован:  9 месяцев   |    Скачан:  11 раз
Сидов:  1  |  0 KB/s  ]   Личеров:  0  |  0 KB/s  ]

* - сиды/пиры с внешних источников

   
 
Автор Сообщение

napkin Пол:Муж

25-Фев-2016 16:44

Американский герой / American hero


Год выпуска: 2015
Жанр: комедия, боевик, мелодрама
Страна: США
Режиссер: Ник Лав
В ролях: Стивен Дорфф, Эдди Гриффин, Андреа Коэн, Луис Да Силва мл., Кина Фергюсон, Рэден Грир, Грэйсон Килпэтрик, Йоханс Майлс, Т. Джоэль Смит, Мишель Табора
Сюжет фильма:
Если суперспособности достаются раздолбаю и тусовщику, скрывающегося за ширмой веселья от реальности, то мы не ждем от него суперподвигов (например, в духе "Хэнкока"). Наш герой промышляет дешевыми фокусами на улице и отловом мелких воришек, до которых у полиции руки не доходят. Впрочем, и у него бывают моменты прозрения - он пытается взять себя в руки и измениться к лучшему. Получится ли...?

  • Мировая премьера: 2 октября 2015


Качество видео: BDRip

Продолжительность: 01:26:16
Формат: AVI
Видео: XviD, 720х384, 1794 Kbps
Аудио #1: русский, одноголосый закадровый [любительский, А.Глинский], MP3 2.0, 112 kbps
Аудио #2: английский, оригинал, AC3 5.1, 448 kbps

Внимание! В переводе принципиально присутствует нецензурная лексика.

Код:

General
Complete name                            : Американский Герой.avi
Format                                   : AVI
Format/Info                              : Audio Video Interleave
File size                                : 1.43 GiB
Duration                                 : 1h 26mn
Overall bit rate                         : 2 368 Kbps
Writing application                      : VirtualDubMod 1.5.10.2 (build 2540/release)
Writing library                          : VirtualDubMod build 2540/release

Video
ID                                       : 0
Format                                   : MPEG-4 Visual
Format profile                           : Advanced Simple@L5
Format settings, BVOP                    : 2
Format settings, QPel                    : No
Format settings, GMC                     : No warppoints
Format settings, Matrix                  : Default (H.263)
Muxing mode                              : Packed bitstream
Codec ID                                 : XVID
Codec ID/Hint                            : XviD
Duration                                 : 1h 26mn
Bit rate                                 : 1 794 Kbps
Width                                    : 720 pixels
Height                                   : 384 pixels
Display aspect ratio                     : 1.85:1
Frame rate                               : 23.976 fps
Color space                              : YUV
Chroma subsampling                       : 4:2:0
Bit depth                                : 8 bits
Scan type                                : Progressive
Compression mode                         : Lossy
Bits/(Pixel*Frame)                       : 0.271
Stream size                              : 1.08 GiB (76%)
Writing library                          : XviD 66

Audio #1
ID                                       : 1
Format                                   : MPEG Audio
Format version                           : Version 1
Format profile                           : Layer 3
Mode                                     : Joint stereo
Mode extension                           : MS Stereo
Codec ID                                 : 55
Codec ID/Hint                            : MP3
Duration                                 : 1h 26mn
Bit rate mode                            : Constant
Bit rate                                 : 112 Kbps
Channel(s)                               : 2 channels
Sampling rate                            : 44.1 KHz
Compression mode                         : Lossy
Stream size                              : 69.1 MiB (5%)
Alignment                                : Split accross interleaves
Interleave, duration                     : 42 ms (1.00 video frame)
Interleave, preload duration             : 500 ms
Writing library                          : LAME3.98.4

Audio #2
ID                                       : 2
Format                                   : AC-3
Format/Info                              : Audio Coding 3
Mode extension                           : CM (complete main)
Format settings, Endianness              : Big
Codec ID                                 : 2000
Duration                                 : 1h 26mn
Bit rate mode                            : Constant
Bit rate                                 : 448 Kbps
Channel(s)                               : 6 channels
Channel positions                        : Front: L C R, Side: L R, LFE
Sampling rate                            : 48.0 KHz
Bit depth                                : 16 bits
Compression mode                         : Lossy
Stream size                              : 276 MiB (19%)
Alignment                                : Aligned on interleaves
Interleave, duration                     : 42 ms (1.00 video frame)
Interleave, preload duration             : 512 ms

Семпл: http://sendfile.su/1207576

picpicpicpic
Для увеличения картинки щелкните мышкой по превью

Этот торрент недоступен для скачивания без регистрации, однако доступен по публичной magnet-ссылке (источники с публичных трекеров). Перед использованием ссылки прочтите, пожалуйста Пользовательское соглашение, а также как можно дольше оставайтесь на раздаче! Для того, чтобы скачать сам торрент-файл (который видит больше источников), а также для того, чтобы поблагодарить релизера, вам необходимо зарегистрироваться. Если регистрироваться лень - вы можете также попробовать скачать релиз по нашим партнерским ссылкам ниже.

[underverse.su].t63580.torrent
Трекер: Зарегистрирован   [ 25.02.2016 16:44 ]  

Статус: проверено (by makkol at 25.02.2016 21:42)
Поблагодарили: пока никто не поблагодарил...
Тип торрента: публичный - доступные источники с открытых трекеров: 
Размер: 1,43 GB (занимает 0,33 DVDR, для записи нужно 1 болванка DVDR/RW)
 
 
Похожие темы
Форум Тема Автор Торрент Отв. Посл. сооб.
Зарубежное кино [DVDRip, Low-Res HDRip, и т.д.] Американская история Х / American History X (Тони Кей / Tony Kaye) [1998 г., драма, криминал, BDRip-AVC] MVO (West Video) + Original (Eng) + Sub (Rus, Eng) M-i-i-i-ke
22 | 1

2 | 1545

2

22.02.2016 19:48

Зарубежное кино [DVDRip, Low-Res HDRip, и т.д.] Американский бизон / American Buffalo (Майкл Корренте / Michael Corrente) [1996 г., драма, экранизация, HDRip] DVO + AVO (П.Карцев) 90ytr90
8 | 0

0 | 714

1

26.11.2016 08:10

Зарубежное кино [DVDRip, Low-Res HDRip, и т.д.] Американский пирог: Все в сборе / American Reunion (Джон Харвитц, Хейден Шлоссберг) [2012 г., комедия, BDRip] WeaSel
1 | 0

0 | 740

24

08.08.2012 19:57

Зарубежное кино [DVDRip, Low-Res HDRip, и т.д.] Американский боевой корабль / American Warships (Тандер Левин) [2012 г., боевик, HDRip] MVO [SyFy] + Original RG NewCinema
0 | 0

0 | 1105

47

21.10.2012 20:15

Зарубежное кино [DVDRip, Low-Res HDRip, и т.д.] Американская Мэри / American Mary (Джен Соска, Сильвия Соска) [2012 г., ужасы, триллер, DVDRip] DVO [den904, DeadSno] RG NewCinema
7 | 0

3 | 1529

33

31.01.2013 12:21

Зарубежное кино [DVDRip, Low-Res HDRip, и т.д.] Американская Мэри / American Mary (Джен Соска / Jen Soska, Сильвия Соска / Sylvia Soska) [2012 г., ужасы, триллер, HDRip] DVO Gaarochi
7 | 0

0 | 984

6

22.03.2013 15:58

Зарубежное кино [DVDRip, Low-Res HDRip, и т.д.] Американская карусель / Roundabout American (Борис Уэкслер) [2012 г., комедия, SATRip] DVO Паукан
1 | 0

0 | 1579

13

14.05.2013 13:10

Зарубежное кино [DVDRip, Low-Res HDRip, и т.д.] Американская карусель / Roundabout American (Борис Уэкслер) [2012 г., комедия, HDTVRip] MVO RG NewCinema
8 | 0

0 | 1369

22

23.05.2013 11:21

Зарубежное кино [DVDRip, Low-Res HDRip, и т.д.] Американская Мэри / American Mary (Джен Соска, Сильвия Соска) [2012 г., Ужасы, BDRip-AVC] DVO (RUS, Влад & Снежинка) + Original (ENG) + Subs (RUS, ENG) Ведьмочка
13 | 0

0 | 612

3

23.08.2014 17:19

Зарубежное кино [DVDRip, Low-Res HDRip, и т.д.] Американская Мэри / American Mary (Джен Соска, Сильвия Соска) [2012 г., Ужасы, BDRip-AVC] DVO (RUS, Влад & Снежинка) + Original (ENG) + Subs (RUS, ENG) Ведьмочка
9 | 0

0 | 641

1

23.08.2014 17:22


Яндекс.Метрика powered by Sphinx


В Н И М А Н И Е
Сайт не распространяет и не хранит электронные версии произведений, а лишь бесплатно и без коммерческой выгоды (не требуя взамен платы,
SMS и т.д.) предоставляет доступ к создаваемому пользователями каталогу ссылок на торрент-файлы, которые содержат только списки хеш-сумм.
Убедительная просьба с жалобами обращаться напрямую к пользователю, разместившему торрент файл.

Вверх