Loading...
Error

Рыбалка в стиле "Олд Скул". (Рыбалка осенью в устье Ворсклы) [2015 г., документальный, рыбалка, WEBRip]

Статистика раздачи
Размер:  445 MB   |    Зарегистрирован:  9 месяцев   |    Скачан:  2 раза

Полного источника не было: 2 месяца 24 дня

Сидов:  0  |  0 KB/s  ]   Личеров:  0  |  0 KB/s  ]

* - сиды/пиры с внешних источников

   
 
Автор Сообщение

ARI71 Пол:Муж

25-Фев-2016 12:12

Рыбалка в стиле "Олд Скул". (Рыбалка осенью в устье Ворсклы)


Год выпуска: 2015
Жанр: документальный, рыбалка
Страна: Украина
Режиссер: Максим Сальник
В ролях: Семён Олд
Сюжет фильма:
В этом фильме широко известный старый киевский рыболов, блоггер и писатель Семён Олд расскажет о своей рыбалке на щуку и судака в устье реки Ворсклы в осеннее время.
Качество видео: WEBRip

Продолжительность: 00:40:00
Формат: AVI
Видео: XviD, 640x360, ~1287 kbps
Аудио: русский, оригинал, MP3 2.0, ~256.00 kbps

Код:

Общее
Полное имя : D:\Олд Скул Рыбалка осенью в устье Ворсклы.avi
Формат : AVI
Формат/Информация : Audio Video Interleave
Размер файла : 445 Мбайт
Продолжительность : 40 м.
Общий поток : 1556 Кбит/сек
Программа кодирования : Lavf56.25.101

Видео
Идентификатор : 0
Формат : xvid
Идентификатор кодека : xvid
Продолжительность : 40 м.
Битрейт : 1288 Кбит/сек
Ширина : 640 пикселей
Высота : 360 пикселей
Соотношение сторон : 16:9
Частота кадров : 25,000 кадров/сек
Бит/(Пиксели*Кадры) : 0.224
Размер потока : 369 Мбайт (83%)

Аудио
Идентификатор : 1
Формат : MPEG Audio
Версия формата : Version 1
Профиль формата : Layer 3
Режим : Joint stereo
Расширение режима : MS Stereo
Идентификатор кодека : 55
Идентификатор кодека/Подсказка : MP3
Продолжительность : 40 м.
Вид битрейта : Постоянный
Битрейт : 256 Кбит/сек
Каналы : 2 канала
Частота : 44,1 КГц
Метод сжатия : С потерями
Размер потока : 73,2 Мбайт (16%)
Выравнивание : Соединение по промежуткам
Продолжительность промежутка : 26 мс. (0,65 видеокадр)
Время предзагрузки промежутка : 26 мс.
Библиотека кодирования : LAME3.99.5
picpicpicpic
Для увеличения картинки щелкните мышкой по превью

Этот торрент недоступен для скачивания без регистрации, однако доступен по публичной magnet-ссылке (источники с публичных трекеров). Перед использованием ссылки прочтите, пожалуйста Пользовательское соглашение, а также как можно дольше оставайтесь на раздаче! Для того, чтобы скачать сам торрент-файл (который видит больше источников), а также для того, чтобы поблагодарить релизера, вам необходимо зарегистрироваться. Если регистрироваться лень - вы можете также попробовать скачать релиз по нашим партнерским ссылкам ниже.

[underverse.su].t63570.torrent
Трекер: Зарегистрирован   [ 25.02.2016 12:12 ]  

Статус: проверено (by makkol at 25.02.2016 12:25)
Поблагодарили: пока никто не поблагодарил...
Тип торрента: публичный - доступные источники с открытых трекеров: 
Размер: 445 MB (занимает 0,1 DVDR, для записи нужно 1 болванка DVDR/RW)
 
 
Похожие темы
Форум Тема Автор Торрент Отв. Посл. сооб.
Рыбалка Рыбалка в стиле "Олд Скул" (10 выпусков) / (Максим Сальник) [2015-2016 г., документальный, познавательный, рыбалка, WEBRip] ARI71
3 | 0

0 | 405

0

16.09.2016 04:47

Рыбалка Рыбалка в стиле "Олд Скул" (1-7 серии из 7) [2015 г., документальный, рыбалка, WEBRip] ARI71
2 | 2

0 | 755

15

13.02.2016 20:36

Рыбалка Рыбалка в Хабаровском Крае. Выпуск № 11 (Александр Белов) [2008 г., документальный, рыбалка, DVDRip] ARI71
5 | 1

0 | 408

1

06.08.2016 10:54

Архив Рыбалка в открытом море [2009 г., Simulator] RUS GanibalKing
0 | 0

3 | 2245

31

05.11.2011 14:45


Яндекс.Метрика powered by Sphinx


В Н И М А Н И Е
Сайт не распространяет и не хранит электронные версии произведений, а лишь бесплатно и без коммерческой выгоды (не требуя взамен платы,
SMS и т.д.) предоставляет доступ к создаваемому пользователями каталогу ссылок на торрент-файлы, которые содержат только списки хеш-сумм.
Убедительная просьба с жалобами обращаться напрямую к пользователю, разместившему торрент файл.

Вверх