Loading...
Error

30 свиданий (Татьяна Капитан) [2015 г., комедия, мелодрама, WEB-DLRip]

Статистика раздачи
Размер:  1,36 GB   |    Зарегистрирован:  9 месяцев   |    Скачан:  76 раз

Полного источника не было: 4 дня

Сидов:  0  |  0 KB/s  ]   Личеров:  0  |  0 KB/s  ]

* - сиды/пиры с внешних источников

   
 
Автор Сообщение

makkol Пол:Муж

24-Фев-2016 23:37

30 свиданий
«Парней много не бывает»


Год выпуска: 2015
Жанр: комедия, мелодрама
Производство: Россия [ПЦ «Кинематограф»]
Режиссер: Татьяна Капитан
В ролях: Наталия Медведева, Никита Панфилов, Дмитрий Богдан, Сергей Аброскин, Ирина Гринёва, Данила Якушев, Гарик Харламов, Никита Джигурда, Сергей Баталов, Ольга Тумайкина
Сюжет фильма:
На что только не пойдешь, чтобы обрести счастье?! Невезучая Даша верит в найденный в интернете способ — в течение месяца сходить на 30 свиданий, а затем мужчина твоей мечты сам найдет тебя. Только остаться бы живой после встреч с самыми безумными кавалерами и пробовать разглядеть среди них того самого.

  • Мировая премьера: 11 февраля 2016
  • Российская премьера: 4 февраля 2016


Качество видео: WEB-DLRip

Продолжительность: 01:28:36
Формат: AVI
Видео: XviD, 720x304 (2.35:1), 25.000 fps, 1812 kbps
Аудио: русский, оригинал (iTunes), AC3 5.1, 48 kHz, 384 kbps

Код:

Формат                                   : AVI
Формат/Информация                        : Audio Video Interleave
Размер файла                             : 1,36 Гбайт
Продолжительность                        : 1 ч. 28 м.
Общий поток                              : 2206 Кбит/сек
Программа кодирования                    : VirtualDubMod 1.5.10.3 | | (build 2550/release)
Библиотека кодирования                   : VirtualDubMod build 2550/release

Видео
Идентификатор                            : 0
Формат                                   : MPEG-4 Visual
Профиль формата                          : Advanced Simple@L5
Параметр BVOP формата                    : 2
Параметр QPel формата                    : Нет
Параметр GMC формата                     : Без точки перехода
Параметр матрицы формата                 : Default (MPEG)
Идентификатор кодека                     : XVID
Идентификатор кодека/Подсказка           : XviD
Продолжительность                        : 1 ч. 28 м.
Битрейт                                  : 1812 Кбит/сек
Ширина                                   : 720 пикселей
Высота                                   : 304 пикселя
Соотношение сторон                       : 2,35:1
Частота кадров                           : 25,000 кадров/сек
Цветовое пространство                    : YUV
Субдискретизация насыщенности            : 4:2:0
Битовая глубина                          : 8 бит
Тип развёртки                            : Прогрессивная
Метод сжатия                             : С потерями
Бит/(Пиксели*Кадры)                      : 0.331
Размер потока                            : 1,12 Гбайт (82%)
Библиотека кодирования                   : XviD 1.2.1 (UTC 2008-12-04)

Аудио
Идентификатор                            : 1
Формат                                   : AC-3
Формат/Информация                        : Audio Coding 3
Расширение режима                        : CM (complete main)
Параметр Endianness формата              : Big
Идентификатор кодека                     : 2000
Продолжительность                        : 1 ч. 28 м.
Вид битрейта                             : Постоянный
Битрейт                                  : 384 Кбит/сек
Каналы                                   : 6 каналов
Расположение каналов                     : Front: L C R, Side: L R, LFE
Частота                                  : 48,0 КГц
Частота кадров                           : 31,250 кадров/сек (1536 spf)
Метод сжатия                             : С потерями
Размер потока                            : 243 Мбайт (17%)
Выравнивание                             : Разделение по промежуткам
Продолжительность промежутка             : 40  мс. (1,00 видеокадр)
Время предзагрузки промежутка            : 500  мс.
picpicpicpicpic
Для увеличения картинки щелкните мышкой по превью

Этот торрент недоступен для скачивания без регистрации, однако доступен по публичной magnet-ссылке (источники с публичных трекеров). Перед использованием ссылки прочтите, пожалуйста Пользовательское соглашение, а также как можно дольше оставайтесь на раздаче! Для того, чтобы скачать сам торрент-файл (который видит больше источников), а также для того, чтобы поблагодарить релизера, вам необходимо зарегистрироваться. Если регистрироваться лень - вы можете также попробовать скачать релиз по нашим партнерским ссылкам ниже.

[underverse.su].t63555.torrent
Трекер: Зарегистрирован   [ 24.02.2016 23:37 ]  

Статус: T временная (by makkol at 25.02.2016 23:52)
Поблагодарили: 2 человека
Тип торрента: публичный - доступные источники с открытых трекеров: 
Размер: 1,36 GB (занимает 0,31 DVDR, для записи нужно 1 болванка DVDR/RW)
 
 
Похожие темы
Форум Тема Автор Торрент Отв. Посл. сооб.
T Наше кино [HDDVDRip / BDRip / WEB-DL / HDTV 1080/720р] 30 свиданий (Татьяна Капитан) [2015 г.,комедия, мелодрама, WEB-DL 720p] [iTunes] romeoexpert
76 | 0

0 | 449

10

24.02.2016 21:35

T Наше кино [HDDVDRip / BDRip / WEB-DL / HDTV 1080/720р] 30 свиданий (Татьяна Капитан) [2015 г., комедия, мелодрама, WEB-DL 1080p] makkol
7 | 0

0 | 513

29

24.02.2016 23:46


Яндекс.Метрика powered by Sphinx


В Н И М А Н И Е
Сайт не распространяет и не хранит электронные версии произведений, а лишь бесплатно и без коммерческой выгоды (не требуя взамен платы,
SMS и т.д.) предоставляет доступ к создаваемому пользователями каталогу ссылок на торрент-файлы, которые содержат только списки хеш-сумм.
Убедительная просьба с жалобами обращаться напрямую к пользователю, разместившему торрент файл.

Вверх