Loading...
Error

Зооакадемия (Декоративные кролики) [2009 г., документальный, история, природа, SatRip]

Статистика раздачи
Размер:  304 MB   |    Зарегистрирован:  9 месяцев   |    Скачан:  1 раз

Полного источника не было: 9 месяцев

Сидов:  0  |  0 KB/s  ]   Личеров:  0  |  0 KB/s  ]

* - сиды/пиры с внешних источников

   
 
Автор Сообщение

ARI71 Пол:Муж

24-Фев-2016 20:40

Зооакадемия (Декоративные кролики)


Год выпуска: 2009
Жанр: документальный, история, природа
Страна: Россия, ЗАО "Первый ТВЧ"
Режиссер: Наталья Сидоренко
Ведущая: Елена Скрыпник
Сюжет фильма:
Декоративные кролики очень приятные и милые животные. Содержание, воспитание, уход за ними приносит не мало радости счастливым обладателям маленьких пушистиков. По сравнению с другими домашними животными расходы на содержание кроликов гораздо ниже, зато радости и счастья от общения с ними не меньше. Все о правильном содержании декоративных кроликов, в программе Зооакадемия.
Качество видео: SatRip

Продолжительность: 00:26:00
Формат: AVI
Видео: XviD, 704x400, ~1499 kbps
Аудио: русский, оригинал, MP3 2.0, ~128.00 kbps

Код:

Общее
Полное имя : D:\Зооакадемия-декоративные кролики.avi
Формат : AVI
Формат/Информация : Audio Video Interleave
Размер файла : 304 Мбайт
Продолжительность : 26 м.
Общий поток : 1637 Кбит/сек
Программа кодирования : VirtualDubMod 1.5.10.3 | www.virtualdub-fr.org || (build 2550/release)
Библиотека кодирования : VirtualDubMod build 2550/release

Видео
Идентификатор : 0
Формат : MPEG-4 Visual
Профиль формата : Simple@L1
Параметр BVOP формата : Нет
Параметр QPel формата : Нет
Параметр GMC формата : Без точки перехода
Параметр матрицы формата : Default (H.263)
Идентификатор кодека : XVID
Идентификатор кодека/Подсказка : XviD
Продолжительность : 26 м.
Битрейт : 1499 Кбит/сек
Ширина : 704 пикселя
Высота : 400 пикселей
Соотношение сторон : 16:9
Частота кадров : 25,000 кадров/сек
Цветовое пространство : YUV
Субдискретизация насыщенности : 4:2:0
Битовая глубина : 8 бит
Тип развёртки : Прогрессивная
Метод сжатия : С потерями
Бит/(Пиксели*Кадры) : 0.213
Размер потока : 279 Мбайт (92%)
Библиотека кодирования : Lavc53.33.0

Аудио
Идентификатор : 1
Формат : MPEG Audio
Версия формата : Version 1
Профиль формата : Layer 3
Идентификатор кодека : 55
Идентификатор кодека/Подсказка : MP3
Продолжительность : 26 м.
Вид битрейта : Постоянный
Битрейт : 128 Кбит/сек
Каналы : 2 канала
Частота : 44,1 КГц
Метод сжатия : С потерями
Размер потока : 23,8 Мбайт (8%)
Выравнивание : Разделение по промежуткам
Продолжительность промежутка : 40 мс. (1,00 видеокадр)
Время предзагрузки промежутка : 500 мс.
Библиотека кодирования : LAME3.99r
Настройки программы : -m s -V 4 -q 2 -lowpass 17 -b 128
Релиз группы:

picpicpicpic
Для увеличения картинки щелкните мышкой по превью

Этот торрент недоступен для скачивания без регистрации, однако доступен по публичной magnet-ссылке (источники с публичных трекеров). Перед использованием ссылки прочтите, пожалуйста Пользовательское соглашение, а также как можно дольше оставайтесь на раздаче! Для того, чтобы скачать сам торрент-файл (который видит больше источников), а также для того, чтобы поблагодарить релизера, вам необходимо зарегистрироваться. Если регистрироваться лень - вы можете также попробовать скачать релиз по нашим партнерским ссылкам ниже.

[underverse.su].t63550.torrent
Трекер: Зарегистрирован   [ 24.02.2016 20:40 ]  

Статус: проверено (by makkol at 24.02.2016 22:00)
Поблагодарили: пока никто не поблагодарил...
Тип торрента: публичный - доступные источники с открытых трекеров: 
Размер: 304 MB (занимает 0,07 DVDR, для записи нужно 1 болванка DVDR/RW)
 
 

Яндекс.Метрика powered by Sphinx


В Н И М А Н И Е
Сайт не распространяет и не хранит электронные версии произведений, а лишь бесплатно и без коммерческой выгоды (не требуя взамен платы,
SMS и т.д.) предоставляет доступ к создаваемому пользователями каталогу ссылок на торрент-файлы, которые содержат только списки хеш-сумм.
Убедительная просьба с жалобами обращаться напрямую к пользователю, разместившему торрент файл.

Вверх